<?xml version="1.0" standalone="no"?>
<!DOCTYPE svg PUBLIC "-//W3C//DTD SVG 1.1//EN" "http://www.w3.org/Graphics/SVG/1.1/DTD/svg11.dtd" >
<svg xmlns="http://www.w3.org/2000/svg">
<metadata></metadata>
<defs>
<font id="bariol_mediummedium" horiz-adv-x="489" >
<font-face units-per-em="1000" ascent="750" descent="-250" />
<missing-glyph horiz-adv-x="233" />
<glyph unicode="&#x2e;&#x2e;&#x2e;" horiz-adv-x="712" d="M93 -8q-55 0 -55 56q0 57 55 57t55 -57q0 -56 -55 -56zM356 -8q-55 0 -55 56q0 57 55 57t55 -57q0 -56 -55 -56zM618 -8q-55 0 -55 56q0 57 55 57t55 -57q0 -56 -55 -56z" />
<glyph unicode="ff" horiz-adv-x="587" d="M368 382h-206v-351q0 -17 -11 -28t-28 -11t-28 11t-11 28v351h-29q-15 0 -25.5 10.5t-10.5 25.5t10.5 25.5t25.5 10.5h29v56q0 75 44 125t132 50q16 0 27 -11t11 -27t-11 -27t-27 -11q-49 0 -73.5 -26t-24.5 -69v-60h206v56q0 75 44 125t132 50q16 0 27 -11t11 -27 t-11 -27t-27 -11q-49 0 -73.5 -26t-24.5 -69v-60h81q15 0 25.5 -10.5t10.5 -25.5t-10.5 -25.5t-25.5 -10.5h-81v-351q0 -17 -11 -28t-28 -11t-28 11t-11 28v351z" />
<glyph unicode="fi" horiz-adv-x="495" d="M84 382h-29q-15 0 -25.5 10.5t-10.5 25.5t10.5 25.5t25.5 10.5h29v56q0 74 47 124.5t136 50.5q65 0 112 -28q19 -11 19 -31q0 -15 -11 -26t-26 -11q-8 0 -26 7q-35 13 -68 13q-50 0 -77.5 -26.5t-27.5 -68.5v-60h234q16 0 27.5 -11t11.5 -28v-384q0 -17 -11.5 -28 t-27.5 -11t-27.5 11t-11.5 28v351h-195v-351q0 -17 -11 -28t-28 -11t-28 11t-11 28v351z" />
<glyph unicode="fl" horiz-adv-x="521" d="M84 382h-29q-15 0 -25.5 10.5t-10.5 25.5t10.5 25.5t25.5 10.5h29v56q0 74 47 124.5t136 50.5q80 0 144 -36q24 -14 24 -42v-500q0 -37 31 -37q16 0 27.5 -11t11.5 -28t-11.5 -28t-27.5 -11q-109 0 -109 120v270h-195v-351q0 -17 -11 -28t-28 -11t-28 11t-11 28v351z M162 514v-60h195v137q-45 18 -90 18q-50 0 -77.5 -26.5t-27.5 -68.5z" />
<glyph unicode="ffi" horiz-adv-x="779" d="M368 382h-206v-351q0 -17 -11 -28t-28 -11t-28 11t-11 28v351h-29q-15 0 -25.5 10.5t-10.5 25.5t10.5 25.5t25.5 10.5h29v56q0 75 44 125t132 50q16 0 27 -11t11 -27t-11 -27t-27 -11q-49 0 -73.5 -26t-24.5 -69v-60h206v56q0 74 47 124.5t136 50.5q65 0 112 -28 q19 -11 19 -31q0 -15 -11 -26t-26 -11q-8 0 -26 7q-35 13 -68 13q-50 0 -77.5 -26.5t-27.5 -68.5v-60h234q16 0 27.5 -11t11.5 -28v-384q0 -17 -11.5 -28t-27.5 -11t-27.5 11t-11.5 28v351h-195v-351q0 -17 -11 -28t-28 -11t-28 11t-11 28v351z" />
<glyph unicode="ffl" horiz-adv-x="805" d="M368 382h-206v-351q0 -17 -11 -28t-28 -11t-28 11t-11 28v351h-29q-15 0 -25.5 10.5t-10.5 25.5t10.5 25.5t25.5 10.5h29v56q0 75 44 125t132 50q16 0 27 -11t11 -27t-11 -27t-27 -11q-49 0 -73.5 -26t-24.5 -69v-60h206v56q0 74 47 124.5t136 50.5q80 0 144 -36 q24 -14 24 -42v-500q0 -37 31 -37q16 0 27.5 -11t11.5 -28t-11.5 -28t-27.5 -11q-109 0 -109 120v270h-195v-351q0 -17 -11 -28t-28 -11t-28 11t-11 28v351zM446 514v-60h195v137q-45 18 -90 18q-50 0 -77.5 -26.5t-27.5 -68.5z" />
<glyph unicode="fj" horiz-adv-x="499" d="M435 415v-437q0 -66 -41 -110t-106 -44q-16 0 -27.5 11t-11.5 28t11.5 28t27.5 11q30 0 49.5 22.5t19.5 53.5v404h-195v-351q0 -17 -11 -28t-28 -11t-28 11t-11 28v351h-29q-15 0 -25.5 10.5t-10.5 25.5t10.5 25.5t25.5 10.5h29v56q0 74 47 124.5t136 50.5q65 0 112 -28 q19 -11 19 -31q0 -15 -11 -26t-26 -11q-8 0 -26 7q-35 13 -68 13q-50 0 -77.5 -26.5t-27.5 -68.5v-60h234q16 0 27.5 -11t11.5 -28z" />
<glyph unicode="fb" horiz-adv-x="794" d="M162 454h81q15 0 25.5 -10.5t10.5 -25.5t-10.5 -25.5t-25.5 -10.5h-81v-351q0 -17 -11 -28t-28 -11t-28 11t-11 28v351h-29q-15 0 -25.5 10.5t-10.5 25.5t10.5 25.5t25.5 10.5h29v56q0 74 47 124.5t136 50.5q80 0 144 -36q24 -14 24 -42v-192q18 22 51.5 37.5t73.5 15.5 q97 0 148.5 -60.5t51.5 -180.5q0 -119 -53.5 -179.5t-153.5 -60.5q-90 0 -143 50.5t-53 147.5v406q-45 18 -90 18q-50 0 -77.5 -26.5t-27.5 -68.5v-60zM435 326v-144q0 -60 32 -91.5t86 -31.5q127 0 127 168q0 83 -32.5 126t-94.5 43q-35 0 -64.5 -17.5t-41.5 -34.5z" />
<glyph unicode="ffb" horiz-adv-x="1078" d="M446 454h81q15 0 25.5 -10.5t10.5 -25.5t-10.5 -25.5t-25.5 -10.5h-81v-351q0 -17 -11 -28t-28 -11t-28 11t-11 28v351h-206v-351q0 -17 -11 -28t-28 -11t-28 11t-11 28v351h-29q-15 0 -25.5 10.5t-10.5 25.5t10.5 25.5t25.5 10.5h29v56q0 75 44 125t132 50q16 0 27 -11 t11 -27t-11 -27t-27 -11q-49 0 -73.5 -26t-24.5 -69v-60h206v56q0 74 47 124.5t136 50.5q80 0 144 -36q24 -14 24 -42v-192q18 22 51.5 37.5t73.5 15.5q97 0 148.5 -60.5t51.5 -180.5q0 -119 -53.5 -179.5t-153.5 -60.5q-90 0 -143 50.5t-53 147.5v406q-45 18 -90 18 q-50 0 -77.5 -26.5t-27.5 -68.5v-60zM719 326v-144q0 -60 32 -91.5t86 -31.5q127 0 127 168q0 83 -32.5 126t-94.5 43q-35 0 -64.5 -17.5t-41.5 -34.5z" />
<glyph unicode="fh" horiz-adv-x="789" d="M435 607v-204q16 27 50.5 46t80.5 19q52 0 88 -15t53 -41.5t24 -55t7 -64.5v-261q0 -17 -11 -28t-28 -11t-28 11t-11 28v247q0 56 -24 86.5t-82 30.5q-61 0 -90 -31.5t-29 -82.5v-250q0 -17 -11.5 -28t-27.5 -11t-27.5 11t-11.5 28v560q-45 18 -90 18q-50 0 -77.5 -26.5 t-27.5 -68.5v-60h81q15 0 25.5 -10.5t10.5 -25.5t-10.5 -25.5t-25.5 -10.5h-81v-351q0 -17 -11 -28t-28 -11t-28 11t-11 28v351h-29q-15 0 -25.5 10.5t-10.5 25.5t10.5 25.5t25.5 10.5h29v56q0 74 47 124.5t136 50.5q80 0 144 -36q24 -14 24 -42z" />
<glyph unicode="ffh" horiz-adv-x="1073" d="M719 607v-204q16 27 50.5 46t80.5 19q52 0 88 -15t53 -41.5t24 -55t7 -64.5v-261q0 -17 -11 -28t-28 -11t-28 11t-11 28v247q0 56 -24 86.5t-82 30.5q-61 0 -90 -31.5t-29 -82.5v-250q0 -17 -11.5 -28t-27.5 -11t-27.5 11t-11.5 28v560q-45 18 -90 18q-50 0 -77.5 -26.5 t-27.5 -68.5v-60h81q15 0 25.5 -10.5t10.5 -25.5t-10.5 -25.5t-25.5 -10.5h-81v-351q0 -17 -11 -28t-28 -11t-28 11t-11 28v351h-206v-351q0 -17 -11 -28t-28 -11t-28 11t-11 28v351h-29q-15 0 -25.5 10.5t-10.5 25.5t10.5 25.5t25.5 10.5h29v56q0 75 44 125t132 50 q16 0 27 -11t11 -27t-11 -27t-27 -11q-49 0 -73.5 -26t-24.5 -69v-60h206v56q0 74 47 124.5t136 50.5q80 0 144 -36q24 -14 24 -42z" />
<glyph unicode="fk" horiz-adv-x="745" d="M435 607v-323l217 169q12 9 25 9q17 0 28 -11t11 -28q0 -19 -16 -32l-150 -115l165 -219q9 -12 9 -26q0 -17 -11 -28t-28 -11q-19 0 -31 15l-165 226l-54 -41v-161q0 -17 -11.5 -28t-27.5 -11t-27.5 11t-11.5 28v560q-45 18 -90 18q-50 0 -77.5 -26.5t-27.5 -68.5v-60h81 q15 0 25.5 -10.5t10.5 -25.5t-10.5 -25.5t-25.5 -10.5h-81v-351q0 -17 -11 -28t-28 -11t-28 11t-11 28v351h-29q-15 0 -25.5 10.5t-10.5 25.5t10.5 25.5t25.5 10.5h29v56q0 74 47 124.5t136 50.5q80 0 144 -36q24 -14 24 -42z" />
<glyph unicode="ffk" horiz-adv-x="1029" d="M719 607v-323l217 169q12 9 25 9q17 0 28 -11t11 -28q0 -19 -16 -32l-150 -115l165 -219q9 -12 9 -26q0 -17 -11 -28t-28 -11q-19 0 -31 15l-165 226l-54 -41v-161q0 -17 -11.5 -28t-27.5 -11t-27.5 11t-11.5 28v560q-45 18 -90 18q-50 0 -77.5 -26.5t-27.5 -68.5v-60h81 q15 0 25.5 -10.5t10.5 -25.5t-10.5 -25.5t-25.5 -10.5h-81v-351q0 -17 -11 -28t-28 -11t-28 11t-11 28v351h-206v-351q0 -17 -11 -28t-28 -11t-28 11t-11 28v351h-29q-15 0 -25.5 10.5t-10.5 25.5t10.5 25.5t25.5 10.5h29v56q0 75 44 125t132 50q16 0 27 -11t11 -27t-11 -27 t-27 -11q-49 0 -73.5 -26t-24.5 -69v-60h206v56q0 74 47 124.5t136 50.5q80 0 144 -36q24 -14 24 -42z" />
<glyph unicode="ffj" horiz-adv-x="783" d="M719 415v-437q0 -66 -41 -110t-106 -44q-16 0 -27.5 11t-11.5 28t11.5 28t27.5 11q30 0 49.5 22.5t19.5 53.5v404h-195v-351q0 -17 -11 -28t-28 -11t-28 11t-11 28v351h-206v-351q0 -17 -11 -28t-28 -11t-28 11t-11 28v351h-29q-15 0 -25.5 10.5t-10.5 25.5t10.5 25.5 t25.5 10.5h29v56q0 75 44 125t132 50q16 0 27 -11t11 -27t-11 -27t-27 -11q-49 0 -73.5 -26t-24.5 -69v-60h206v56q0 74 47 124.5t136 50.5q65 0 112 -28q19 -11 19 -31q0 -15 -11 -26t-26 -11q-8 0 -26 7q-35 13 -68 13q-50 0 -77.5 -26.5t-27.5 -68.5v-60h234 q16 0 27.5 -11t11.5 -28z" />
<glyph unicode=" "  horiz-adv-x="233" />
<glyph unicode="&#x09;" horiz-adv-x="233" />
<glyph unicode="&#xa0;" horiz-adv-x="233" />
<glyph unicode="!" horiz-adv-x="210" d="M105 681q47 0 46 -46l-17 -434q-2 -28 -29 -28q-28 0 -30 28l-16 434q-1 46 46 46zM105 -8q-55 0 -55 56q0 57 55 57t55 -57q0 -56 -55 -56z" />
<glyph unicode="&#x22;" horiz-adv-x="285" d="M84 681q18 0 27.5 -9t8.5 -25l-9 -166q-2 -27 -27 -27t-27 27l-9 166q-1 16 8.5 25t27.5 9zM201 681q19 0 28 -9t8 -25l-9 -166q-2 -27 -27 -27t-27 27l-9 166q-1 16 8.5 25t27.5 9z" />
<glyph unicode="#" horiz-adv-x="559" d="M45 236q0 14 10 24t24 10h60l19 116h-56q-14 0 -24 10t-10 24t10 24t24 10h66l27 167q5 28 33 28q17 0 26.5 -11.5t7.5 -27.5l-24 -156h115l27 167q5 28 33 28q17 0 26.5 -11.5t7.5 -27.5l-24 -156h55q14 0 24 -10t10 -24t-10 -24t-24 -10h-66l-18 -116h61q14 0 24 -10 t10 -24t-10 -24t-24 -10h-71l-29 -184q-5 -28 -34 -28q-15 0 -25.5 11.5t-8.5 27.5l27 173h-115l-29 -184q-5 -28 -34 -28q-15 0 -25.5 11.5t-8.5 27.5l27 173h-50q-14 0 -24 10t-10 24zM227 386l-18 -116h115l19 116h-116z" />
<glyph unicode="$" horiz-adv-x="564" d="M437 538q-63 71 -154 71q-67 0 -98.5 -29t-31.5 -70q0 -43 37.5 -70t91 -43.5t107 -37.5t91 -65t37.5 -112q0 -86 -51 -136t-149 -58v-68q0 -14 -10 -24t-24 -10t-24 10t-10 24v68q-72 7 -129 40.5t-82 79.5q-5 10 -5 20q0 17 11.5 29t28.5 12q20 0 34 -17 q71 -88 172 -88q76 0 115 30.5t39 87.5q0 41 -27 69t-67.5 42t-87.5 31.5t-87.5 36t-67.5 57t-27 92.5q0 70 45 118.5t135 56.5v69q0 14 10 24t24 10t24 -10t10 -24v-69q126 -12 183 -96q8 -11 8 -25q0 -17 -12 -28.5t-29 -11.5t-30 14z" />
<glyph unicode="%" horiz-adv-x="754" d="M188 426q84 0 84 98t-84 98q-82 0 -82 -98t82 -98zM188 687q79 0 115 -44.5t36 -118.5t-36 -118.5t-115 -44.5q-78 0 -113.5 44.5t-35.5 118.5t35.5 118.5t113.5 44.5zM564 52q83 0 83 98t-83 98q-82 0 -82 -98t82 -98zM564 313q79 0 115 -44.5t36 -118.5t-36 -118.5 t-115 -44.5q-78 0 -113.5 44.5t-35.5 118.5t35.5 118.5t113.5 44.5zM535 681q14 0 24.5 -10.5t10.5 -25.5q0 -7 -4 -15l-321 -620q-8 -18 -30 -18q-14 0 -24 10t-10 25q0 10 3 16l321 619q8 19 30 19z" />
<glyph unicode="&#x26;" horiz-adv-x="624" d="M178 523q0 -62 31 -124q44 29 73.5 69t29.5 74q0 31 -16.5 51t-46.5 20q-34 0 -52.5 -26t-18.5 -64zM253 60q71 0 122 41q-120 89 -191 197q-65 -52 -65 -121q0 -54 38.5 -85.5t95.5 -31.5zM565 -8q-18 0 -58.5 20t-69.5 41q-76 -67 -184 -67q-93 0 -153.5 49t-60.5 142 q0 103 106 181q-45 88 -45 165q0 70 39.5 117t109.5 47q66 0 103.5 -41t37.5 -104q0 -57 -36.5 -105t-106.5 -100q60 -97 181 -181q13 16 33 86q10 31 38 31q17 0 28 -11t11 -28q0 -52 -47 -120q47 -29 87 -46q26 -11 26 -37q0 -17 -11 -28t-28 -11z" />
<glyph unicode="'" horiz-adv-x="168" d="M84 681q18 0 27.5 -9t8.5 -25l-9 -166q-2 -27 -27 -27t-27 27l-9 166q-1 16 8.5 25t27.5 9z" />
<glyph unicode="(" horiz-adv-x="303" d="M52 296q0 202 38 300.5t132 137.5q10 4 17 4q15 0 26 -11t11 -26q0 -24 -23 -34q-34 -16 -57 -41.5t-35.5 -54t-19 -76.5t-8 -89t-1.5 -110t1.5 -110t8 -89t19 -76.5t35.5 -54t57 -41.5q23 -10 23 -34q0 -15 -11 -26t-26 -11q-7 0 -17 4q-94 39 -132 137.5t-38 300.5z " />
<glyph unicode=")" horiz-adv-x="303" d="M251 296q0 -202 -38 -300.5t-132 -137.5q-10 -4 -17 -4q-15 0 -26 11t-11 26q0 24 23 34q34 16 57 41.5t35.5 54t19 76.5t8 89t1.5 110t-1.5 110t-8 89t-19 76.5t-35.5 54t-57 41.5q-23 10 -23 34q0 15 11 26t26 11q7 0 17 -4q94 -39 132 -137.5t38 -300.5z" />
<glyph unicode="*" horiz-adv-x="362" d="M238 438l-57 87l-58 -87q-14 -22 -35 -7q-20 16 -7 35l61 83l-95 19q-23 5 -17 33q6 26 30 18l98 -29l-3 98q-1 13 6 18.5t20 5.5q12 0 19 -5.5t6 -18.5l-3 -98l98 29q24 8 30 -18q6 -28 -17 -33l-95 -19l61 -83q13 -19 -7 -35q-21 -15 -35 7z" />
<glyph unicode="+" horiz-adv-x="454" d="M454 218q0 -15 -10.5 -26t-24.5 -11h-155v-151q0 -16 -11 -27t-26 -11t-26 11t-11 27v151h-155q-14 0 -24.5 11t-10.5 26t10.5 25.5t24.5 10.5h155v152q0 16 11 27.5t26 11.5t26 -11.5t11 -27.5v-152h155q14 0 24.5 -10.5t10.5 -25.5z" />
<glyph unicode="," horiz-adv-x="188" d="M93 105q56 0 56 -65q0 -61 -24 -116t-62 -85q-7 -6 -15 -6q-7 0 -12.5 5t-5.5 13q0 7 5 13q21 28 30 47t9 45q0 19 -18 45.5t-18 46.5q0 57 55 57z" />
<glyph unicode="-" horiz-adv-x="370" d="M320 252q0 -15 -10.5 -25.5t-25.5 -10.5h-198q-15 0 -25.5 10.5t-10.5 25.5t10.5 25.5t25.5 10.5h198q15 0 25.5 -10.5t10.5 -25.5z" />
<glyph unicode="." horiz-adv-x="187" d="M93 -8q-55 0 -55 56q0 57 55 57t55 -57q0 -56 -55 -56z" />
<glyph unicode="/" horiz-adv-x="413" d="M36 -39l265 762q10 28 39 28q17 0 28.5 -12t11.5 -29q0 -9 -4 -18l-264 -762q-10 -28 -39 -28q-17 0 -28.5 12t-11.5 29q0 7 3 18z" />
<glyph unicode="0" horiz-adv-x="602" d="M301 64q88 0 128 64.5t40 208.5q0 142 -40 207t-128 65t-128 -65t-40 -207q0 -144 40 -208.5t128 -64.5zM301 687q129 0 190.5 -85.5t61.5 -264.5q0 -180 -61.5 -265.5t-190.5 -85.5q-130 0 -191 85.5t-61 265.5q0 179 61 264.5t191 85.5z" />
<glyph unicode="1" horiz-adv-x="347" d="M184 564l-89 -62q-11 -7 -23 -7q-16 0 -28 11.5t-12 28.5q0 22 19 35l148 102q13 9 26 9q17 0 29 -12t12 -29v-607q0 -17 -12 -29t-29 -12t-29 12t-12 29v531z" />
<glyph unicode="2" horiz-adv-x="541" d="M68 559q20 57 74 92.5t131 35.5q100 0 160 -55.5t60 -144.5q0 -53 -26.5 -101t-67 -81t-87 -65.5t-87 -56.5t-67 -51t-26.5 -52h332q16 0 28 -12t12 -28t-12 -28t-28 -12h-380q-16 0 -28 12t-12 28q0 61 37.5 110.5t91 84.5t107.5 69.5t91.5 81t37.5 101.5q0 52 -36.5 87 t-99.5 35q-94 0 -132 -84q-12 -25 -37 -25q-16 0 -28 12t-12 28q0 10 4 19z" />
<glyph unicode="3" horiz-adv-x="551" d="M292 412q109 0 157 -60t48 -155q0 -101 -60 -155.5t-176 -54.5q-147 0 -221 113q-7 12 -7 23q0 17 11.5 28.5t28.5 11.5q20 0 36 -21q54 -76 152 -76q75 0 113.5 34t38.5 97q0 138 -139 138h-63q-17 0 -28.5 11.5t-11.5 28.5t13 30l163 188h-236q-17 0 -28.5 11.5 t-11.5 28.5t11.5 28.5t28.5 11.5h321q16 0 28 -11.5t12 -28.5q0 -16 -11 -28z" />
<glyph unicode="4" horiz-adv-x="549" d="M429 229h47q16 0 28 -11.5t12 -28.5t-12 -28.5t-28 -11.5h-47v-115q0 -17 -12.5 -29.5t-29.5 -12.5t-29.5 12.5t-12.5 29.5v115h-276q-17 0 -28.5 11.5t-11.5 28.5q0 13 8 24l314 447q13 20 36 20q17 0 29.5 -12.5t12.5 -29.5v-409zM141 229h204v288z" />
<glyph unicode="5" horiz-adv-x="564" d="M275 454q110 0 173.5 -58t63.5 -175q0 -115 -64 -175t-173 -60q-84 0 -148 39.5t-89 97.5q-5 11 -5 20q0 17 11.5 28.5t28.5 11.5q24 0 36 -22q28 -50 67 -72t99 -22q70 0 111.5 38.5t41.5 115.5q0 76 -41.5 114.5t-111.5 38.5q-87 0 -148 -51q-18 -14 -33 -14 q-16 0 -28 11.5t-12 28.5q0 5 2 15l55 277q2 12 13 22t26 10h299q17 0 28.5 -11.5t11.5 -28.5t-11.5 -28.5t-28.5 -11.5h-273l-35 -176q55 37 134 37z" />
<glyph unicode="6" horiz-adv-x="575" d="M299 440q104 0 167 -58t63 -167q0 -117 -64.5 -173t-175.5 -56q-124 0 -183.5 90t-59.5 245q0 366 257 366q57 0 101 -17t66 -40q13 -14 13 -30t-11.5 -28t-28.5 -12q-13 0 -26 9q-55 40 -114 40q-89 0 -131 -65.5t-42 -179.5q24 31 69 53.5t100 22.5zM289 64 q72 0 114 36.5t42 114.5q0 72 -42 110t-108 38q-104 0 -162 -100q0 -90 41 -144.5t115 -54.5z" />
<glyph unicode="7" horiz-adv-x="493" d="M108 33q0 80 28.5 155.5t69.5 131t82.5 104t70 92t28.5 77.5h-325q-16 0 -28 11.5t-12 28.5t12 28.5t28 11.5h369q17 0 28.5 -11.5t11.5 -28.5q0 -44 -15.5 -85.5t-40.5 -76.5t-55 -70t-59.5 -74t-54.5 -80.5t-40.5 -97t-15.5 -116.5q0 -17 -12 -29t-29 -12t-29 12 t-12 29z" />
<glyph unicode="8" horiz-adv-x="563" d="M281 -14q-113 0 -176.5 53.5t-63.5 155.5q0 124 115 173q-85 43 -85 139q0 88 56 134t154 46q99 0 154.5 -46t55.5 -134q0 -95 -84 -139q115 -50 115 -173q0 -102 -64 -155.5t-177 -53.5zM278 609q-59 0 -91 -26.5t-32 -75.5q0 -50 34 -76.5t92 -26.5q59 0 93 26.5 t34 76.5q0 49 -35 75.5t-95 26.5zM281 326q-74 0 -115 -33.5t-41 -97.5t42.5 -97.5t113.5 -33.5q72 0 114.5 33.5t42.5 97.5t-41.5 97.5t-115.5 33.5z" />
<glyph unicode="9" horiz-adv-x="575" d="M276 233q-104 0 -167 58t-63 167q0 117 64.5 173t175.5 56q124 0 183.5 -90t59.5 -245q0 -366 -257 -366q-57 0 -101 17t-66 40q-13 14 -13 30q0 17 12 28.5t28 11.5q13 0 26 -9q55 -40 114 -40q89 0 131 65.5t42 179.5q-24 -31 -69 -53.5t-100 -22.5zM286 609 q-72 0 -114 -36.5t-42 -114.5q0 -72 42 -110t108 -38q104 0 162 100q0 90 -41 144.5t-115 54.5z" />
<glyph unicode=":" horiz-adv-x="187" d="M93 -8q-55 0 -55 56q0 57 55 57t55 -57q0 -56 -55 -56zM93 343q-55 0 -55 56q0 57 55 57t55 -57q0 -56 -55 -56z" />
<glyph unicode=";" horiz-adv-x="187" d="M93 343q-55 0 -55 56q0 57 55 57t55 -57q0 -56 -55 -56zM93 105q56 0 56 -65q0 -61 -24 -116t-62 -85q-7 -6 -15 -6q-7 0 -12.5 5t-5.5 13q0 7 5 13q21 28 30 47t9 45q0 19 -18 45.5t-18 46.5q0 57 55 57z" />
<glyph unicode="&#x3c;" horiz-adv-x="348" d="M0 235q0 17 14 29l275 214q9 7 21 7q15 0 26 -11t11 -26q0 -20 -17 -31l-241 -182l241 -182q17 -11 17 -31q0 -15 -11 -26t-26 -11q-12 0 -21 7l-275 214q-14 12 -14 29z" />
<glyph unicode="=" horiz-adv-x="454" d="M454 299q0 -15 -10.5 -26t-24.5 -11h-384q-14 0 -24.5 11t-10.5 26t10.5 25.5t24.5 10.5h384q14 0 24.5 -10.5t10.5 -25.5zM454 136q0 -15 -10.5 -26t-24.5 -11h-384q-14 0 -24.5 11t-10.5 26t10.5 25.5t24.5 10.5h384q14 0 24.5 -10.5t10.5 -25.5z" />
<glyph unicode="&#x3e;" horiz-adv-x="348" d="M347 235q0 -17 -14 -29l-275 -214q-9 -7 -21 -7q-15 0 -26 11t-11 26q0 20 17 31l241 182l-241 182q-17 11 -17 31q0 15 11 26t26 11q12 0 21 -7l275 -214q14 -12 14 -29z" />
<glyph unicode="?" horiz-adv-x="458" d="M178 172q-32 32 -32 85q0 35 20.5 63t50 47t59 38.5t50 47t20.5 62.5q0 46 -32 71.5t-88 25.5q-52 0 -83.5 -27.5t-31.5 -78.5q0 -17 -12 -29t-29 -12t-29 12t-12 29q0 82 52.5 131.5t144.5 49.5q96 0 149.5 -45t53.5 -127q0 -47 -20.5 -84t-50 -58.5t-59 -39t-50 -35.5 t-20.5 -37t12 -36q8 -12 8 -25q0 -17 -12 -29t-29 -12t-30 13zM205 -8q-55 0 -55 56q0 57 55 57t55 -57q0 -56 -55 -56z" />
<glyph unicode="@" horiz-adv-x="803" d="M396 302q-48 0 -85 -35q-9 -8 -21 -8q-13 0 -21.5 8.5t-8.5 21.5q0 12 7 20q46 55 129 55q71 0 109 -35t38 -95v-122q0 -58 55 -58q48 0 72.5 33t24.5 109q0 137 -78.5 206t-215.5 69q-294 0 -294 -296q0 -155 77 -228t217 -73q134 0 219 51q8 5 17 5q13 0 22.5 -9.5 t9.5 -23.5q0 -19 -16 -29q-99 -58 -252 -58q-172 0 -266.5 93t-94.5 272t94.5 269.5t266.5 90.5q163 0 262 -87.5t99 -251.5q0 -36 -7.5 -68.5t-24.5 -64.5t-52 -51t-83 -19q-77 0 -104 58q-41 -58 -120 -58q-57 0 -94 30.5t-37 82.5q0 51 35.5 80t93.5 29h110v19 q0 32 -22.5 50t-60.5 18zM383 50q39 0 67.5 22.5t28.5 61.5v27h-105q-69 0 -69 -55q0 -56 78 -56z" />
<glyph unicode="A" horiz-adv-x="618" d="M417 269l-108 281l-108 -281h216zM444 189h-270l-69 -170q-11 -27 -39 -27q-17 0 -29.5 12.5t-12.5 29.5q0 8 3 15l243 605q10 27 39 27t39 -27l243 -605q3 -7 3 -15q0 -17 -12.5 -29.5t-29.5 -12.5q-28 0 -39 27z" />
<glyph unicode="B" horiz-adv-x="564" d="M156 591v-205h129q57 0 87 28.5t30 75.5q0 101 -117 101h-129zM156 312v-230h154q61 0 91 30.5t30 85.5q0 54 -32 84t-89 30h-154zM311 0h-197q-17 0 -29.5 12.5t-12.5 29.5v589q0 17 12.5 29.5t29.5 12.5h172q104 0 153 -47.5t49 -127.5q0 -49 -24.5 -86t-62.5 -51 q118 -39 118 -163q0 -91 -53.5 -144.5t-154.5 -53.5z" />
<glyph unicode="C" horiz-adv-x="635" d="M351 -14q-312 0 -312 350q0 175 81 263t231 88q77 0 137 -29t95 -78q9 -14 9 -27q0 -17 -12 -29t-29 -12q-20 0 -34 17q-64 80 -166 80q-226 0 -226 -273q0 -142 56 -207t170 -65q103 0 172 75q14 15 31 15t29 -12t12 -29q0 -13 -8 -24q-34 -48 -97.5 -75.5t-138.5 -27.5 z" />
<glyph unicode="D" horiz-adv-x="600" d="M156 591v-509h94q111 0 168 58.5t57 195.5t-57 196t-168 59h-94zM114 673h136q153 0 232 -79t79 -258t-79 -257.5t-232 -78.5h-136q-17 0 -29.5 12.5t-12.5 29.5v589q0 17 12.5 29.5t29.5 12.5z" />
<glyph unicode="E" horiz-adv-x="520" d="M439 0h-325q-17 0 -29.5 12.5t-12.5 29.5v589q0 17 12.5 29.5t29.5 12.5h314q17 0 29 -12t12 -29t-12 -29t-29 -12h-272v-212h207q17 0 28.5 -11.5t11.5 -28.5t-11.5 -28.5t-28.5 -11.5h-207v-217h283q17 0 29 -12t12 -29t-12 -29t-29 -12z" />
<glyph unicode="F" horiz-adv-x="508" d="M114 0q-17 0 -29.5 12.5t-12.5 29.5v589q0 17 12.5 29.5t29.5 12.5h314q17 0 29 -12t12 -29t-12 -29t-29 -12h-272v-219h207q17 0 28.5 -12t11.5 -28q0 -17 -11.5 -28.5t-28.5 -11.5h-208v-251q0 -17 -12 -29t-29 -12z" />
<glyph unicode="G" horiz-adv-x="668" d="M351 -14q-312 0 -312 350q0 175 81 263t231 88q77 0 137 -29t95 -78q9 -14 9 -27q0 -17 -12 -29t-29 -12q-20 0 -34 17q-64 80 -166 80q-226 0 -226 -273q0 -142 56 -207t170 -65q110 0 178 74v130h-153q-16 0 -28 12t-12 28t12 28t28 12h195q17 0 28.5 -12t11.5 -28 v-169q0 -27 -14 -43q-91 -110 -246 -110z" />
<glyph unicode="H" horiz-adv-x="641" d="M562 639v-605q0 -17 -12.5 -29.5t-29.5 -12.5t-29.5 12.5t-12.5 29.5v270h-322v-270q0 -17 -12.5 -29.5t-29.5 -12.5t-29.5 12.5t-12.5 29.5v605q0 17 12.5 29.5t29.5 12.5t29.5 -12.5t12.5 -29.5v-255h322v255q0 17 12.5 29.5t29.5 12.5t29.5 -12.5t12.5 -29.5z" />
<glyph unicode="I" horiz-adv-x="228" d="M156 639v-605q0 -17 -12.5 -29.5t-29.5 -12.5t-29.5 12.5t-12.5 29.5v605q0 17 12.5 29.5t29.5 12.5t29.5 -12.5t12.5 -29.5z" />
<glyph unicode="J" horiz-adv-x="416" d="M344 639v-433q0 -100 -47 -159.5t-147 -59.5q-65 0 -113 26q-22 12 -22 36q0 17 12 29t29 12q8 0 21 -5q40 -16 73 -16q56 0 83 36.5t27 96.5v437q0 17 12.5 29.5t29.5 12.5t29.5 -12.5t12.5 -29.5z" />
<glyph unicode="K" horiz-adv-x="552" d="M156 639v-274l272 301q14 15 32 15q17 0 29.5 -12.5t12.5 -29.5q0 -18 -12 -30l-200 -218l233 -331q9 -13 9 -26q0 -17 -12.5 -29.5t-29.5 -12.5q-21 0 -34 17l-226 319l-74 -79v-215q0 -17 -12.5 -29.5t-29.5 -12.5t-29.5 12.5t-12.5 29.5v605q0 17 12.5 29.5t29.5 12.5 t29.5 -12.5t12.5 -29.5z" />
<glyph unicode="L" horiz-adv-x="481" d="M156 639v-557h259q17 0 29 -12t12 -29t-12 -29t-29 -12h-301q-17 0 -29.5 12.5t-12.5 29.5v597q0 17 12.5 29.5t29.5 12.5t29.5 -12.5t12.5 -29.5z" />
<glyph unicode="M" horiz-adv-x="748" d="M371 109q-23 0 -35 21l-190 346v-443q0 -17 -12 -29t-29 -12t-29 12t-12 29v608q0 17 12 28.5t28 11.5q23 0 35 -21l232 -422l232 422q12 21 35 21q16 0 28 -11.5t12 -28.5v-608q0 -17 -12 -29t-29 -12t-29 12t-12 29v443l-190 -346q-12 -21 -35 -21z" />
<glyph unicode="N" horiz-adv-x="619" d="M471 173v466q0 17 12.5 29.5t29.5 12.5t29.5 -12.5t12.5 -29.5v-605q0 -17 -12.5 -29.5t-29.5 -12.5q-23 0 -36 19l-329 489v-466q0 -17 -12.5 -29.5t-29.5 -12.5t-29.5 12.5t-12.5 29.5v605q0 17 12.5 29.5t29.5 12.5q23 0 36 -19z" />
<glyph unicode="O" horiz-adv-x="698" d="M349 -14q-150 0 -230 88t-80 262q0 175 80 263t230 88t230 -88t80 -263q0 -174 -80 -262t-230 -88zM349 609q-110 0 -167 -69t-57 -204q0 -134 57 -203t167 -69t167 69t57 203q0 135 -57 204t-167 69z" />
<glyph unicode="P" horiz-adv-x="541" d="M308 272h-152v-238q0 -17 -12.5 -29.5t-29.5 -12.5t-29.5 12.5t-12.5 29.5v597q0 17 12.5 29.5t29.5 12.5h194q87 0 140.5 -52t53.5 -148t-53.5 -148.5t-140.5 -52.5zM156 591v-237h142q55 0 86.5 31t31.5 88t-31.5 87.5t-86.5 30.5h-142z" />
<glyph unicode="Q" horiz-adv-x="698" d="M349 -14q-150 0 -230 88t-80 262q0 175 80 263t230 88t230 -88t80 -263q0 -229 -140 -310q49 -14 77 -50q11 -15 11 -29q0 -18 -13 -31t-31 -13q-19 0 -32 14q-37 39 -72 54t-110 15zM349 609q-110 0 -167 -69t-57 -204q0 -134 57 -203t167 -69t167 69t57 203 q0 135 -57 204t-167 69z" />
<glyph unicode="R" horiz-adv-x="549" d="M156 274v-240q0 -17 -12.5 -29.5t-29.5 -12.5t-29.5 12.5t-12.5 29.5v597q0 17 12.5 29.5t29.5 12.5h194q89 0 142.5 -57t53.5 -142q0 -77 -45 -133.5t-120 -62.5l166 -217q10 -13 10 -27q0 -17 -12.5 -29.5t-29.5 -12.5q-21 0 -35 18l-187 264h-95zM156 591v-237h154 q48 0 78 35.5t30 84.5q0 50 -30.5 83.5t-80.5 33.5h-151z" />
<glyph unicode="S" horiz-adv-x="560" d="M437 538q-63 71 -154 71q-67 0 -98.5 -29t-31.5 -70q0 -43 37.5 -70t91 -43.5t107 -37.5t91 -65t37.5 -112q0 -94 -60.5 -145t-177.5 -51q-81 0 -146.5 35.5t-94.5 86.5q-5 10 -5 20q0 17 11.5 29t28.5 12q20 0 34 -17q71 -88 172 -88q76 0 115 30.5t39 87.5q0 41 -27 69 t-67.5 42t-87.5 31.5t-87.5 36t-67.5 57t-27 92.5q0 77 53 127t161 50q72 0 129 -26t88 -72q8 -11 8 -25q0 -17 -12 -28.5t-29 -11.5t-30 14z" />
<glyph unicode="T" horiz-adv-x="544" d="M483 593h-169v-559q0 -17 -12.5 -29.5t-29.5 -12.5t-29.5 12.5t-12.5 29.5v559h-169q-17 0 -28.5 11.5t-11.5 28.5t11.5 28.5t28.5 11.5h422q17 0 28.5 -11.5t11.5 -28.5t-11.5 -28.5t-28.5 -11.5z" />
<glyph unicode="U" horiz-adv-x="616" d="M310 -14q-240 0 -240 226v427q0 17 12.5 29.5t29.5 12.5t29.5 -12.5t12.5 -29.5v-427q0 -148 156 -148q153 0 153 148v423q0 19 13 32.5t31 13.5q19 0 31.5 -13.5t12.5 -32.5v-423q0 -46 -11 -83.5t-36.5 -71t-74.5 -52.5t-119 -19z" />
<glyph unicode="V" horiz-adv-x="590" d="M100 654l195 -512l195 512q10 27 39 27q17 0 29.5 -12.5t12.5 -29.5q0 -9 -4 -20l-232 -599q-12 -28 -40 -28t-40 28l-232 599q-4 11 -4 20q0 17 12.5 29.5t29.5 12.5q29 0 39 -27z" />
<glyph unicode="W" horiz-adv-x="824" d="M544 26l-132 465l-132 -465q-10 -34 -42 -34q-31 0 -41 31l-176 601q-2 10 -2 15q0 17 12.5 29.5t29.5 12.5q31 0 40 -29l139 -480l131 477q10 32 41 32t41 -32l131 -477l139 480q9 29 40 29q17 0 29.5 -12.5t12.5 -29.5q0 -5 -2 -15l-176 -601q-10 -31 -41 -31 q-32 0 -42 34z" />
<glyph unicode="X" horiz-adv-x="518" d="M432 11l-173 254l-173 -254q-13 -19 -35 -19q-17 0 -29.5 12.5t-12.5 29.5q0 12 7 23l198 287l-186 272q-7 12 -7 23q0 17 12.5 29.5t29.5 12.5q21 0 35 -19l161 -238l161 238q14 19 35 19q17 0 29.5 -12.5t12.5 -29.5q0 -11 -7 -23l-186 -272l198 -287q7 -11 7 -23 q0 -17 -12.5 -29.5t-29.5 -12.5q-22 0 -35 19z" />
<glyph unicode="Y" horiz-adv-x="528" d="M306 310v-276q0 -17 -12.5 -29.5t-29.5 -12.5t-29.5 12.5t-12.5 29.5v276l-197 307q-6 11 -6 22q0 17 12.5 29.5t29.5 12.5q23 0 39 -25l164 -266l164 266q16 25 39 25q17 0 29.5 -12.5t12.5 -29.5q0 -11 -6 -22z" />
<glyph unicode="Z" horiz-adv-x="525" d="M471 0h-414q-17 0 -29 12t-12 29q0 14 8 25l358 525h-304q-17 0 -29 12t-12 29t12 29t29 12h379q17 0 29 -12t12 -29q0 -13 -7 -24l-357 -526h337q17 0 29 -12t12 -29t-12 -29t-29 -12z" />
<glyph unicode="[" horiz-adv-x="269" d="M244 -110q0 -15 -10.5 -25.5t-25.5 -10.5h-95q-18 0 -29.5 12t-11.5 30v800q0 18 11.5 30t29.5 12h95q15 0 25.5 -10.5t10.5 -25.5t-10.5 -25.5t-25.5 -10.5h-56v-740h56q15 0 25.5 -10.5t10.5 -25.5z" />
<glyph unicode="\" horiz-adv-x="413" d="M112 723l265 -762q3 -11 3 -18q0 -17 -11.5 -29t-28.5 -12q-29 0 -39 28l-264 762q-4 9 -4 18q0 17 11.5 29t28.5 12q29 0 39 -28z" />
<glyph unicode="]" horiz-adv-x="269" d="M25 -110q0 15 10.5 25.5t25.5 10.5h56v740h-56q-15 0 -25.5 10.5t-10.5 25.5t10.5 25.5t25.5 10.5h95q18 0 29.5 -12t11.5 -30v-800q0 -18 -11.5 -30t-29.5 -12h-95q-15 0 -25.5 10.5t-10.5 25.5z" />
<glyph unicode="^" horiz-adv-x="476" d="M371 352l-133 236l-133 -236q-11 -18 -31 -18q-14 0 -24.5 11t-10.5 26q0 8 5 18l164 284q11 18 30 18q20 0 29 -18l165 -284q4 -8 4 -18q0 -15 -10.5 -26t-24.5 -11q-21 0 -30 18z" />
<glyph unicode="_" horiz-adv-x="412" d="M430 -73q0 -15 -10.5 -25.5t-25.5 -10.5h-376q-15 0 -25.5 10.5t-10.5 25.5t10.5 25.5t25.5 10.5h376q15 0 25.5 -10.5t10.5 -25.5z" />
<glyph unicode="`" horiz-adv-x="376" d="M255 517q-18 -17 -36 1l-98 94q-23 22 4 49q13 12 25.5 12t21.5 -11l87 -108q17 -19 -4 -37z" />
<glyph unicode="a" horiz-adv-x="464" d="M208 57q52 0 90.5 31.5t38.5 82.5v39h-125q-101 0 -101 -75q0 -35 25 -56.5t72 -21.5zM230 468q89 0 137 -45t48 -125v-266q0 -17 -11.5 -28t-27.5 -11q-17 0 -28 11t-11 28v20q-38 -65 -139 -65q-76 0 -121 40t-45 108q0 65 47 102t123 37h135v22q0 44 -28 72t-79 28 q-37 0 -61.5 -11t-49.5 -36q-14 -14 -30 -14q-14 0 -24 9.5t-10 24.5t12 30q58 69 163 69z" />
<glyph unicode="b" horiz-adv-x="496" d="M137 326v-144q0 -60 32 -91.5t86 -31.5q127 0 127 168q0 83 -32.5 126t-94.5 43q-35 0 -64.5 -17.5t-41.5 -34.5zM262 468q97 0 148.5 -60.5t51.5 -180.5q0 -119 -53.5 -179.5t-153.5 -60.5q-90 0 -143 50.5t-53 147.5v488q0 17 11.5 28t27.5 11t27.5 -11t11.5 -28v-258 q18 22 51.5 37.5t73.5 15.5z" />
<glyph unicode="c" horiz-adv-x="445" d="M34 227q0 121 54.5 181t155.5 60q59 0 99.5 -22t59.5 -47q9 -13 9 -26q0 -16 -11.5 -27t-26.5 -11q-16 0 -29 13q-48 48 -101 48q-130 0 -130 -169q0 -168 130 -168q10 0 20 1.5t17.5 3t16.5 5t13.5 6t12.5 7.5t11 7t10.5 7.5t8.5 6.5q11 8 23 8q15 0 26.5 -11t11.5 -27 q0 -17 -15 -31q-67 -55 -156 -55q-100 0 -155 60t-55 180z" />
<glyph unicode="d" horiz-adv-x="491" d="M357 182v144l-5 7.5t-14 16.5t-23.5 21.5t-33 17t-42.5 7.5q-62 0 -94.5 -43t-32.5 -126q0 -168 127 -168q54 0 86 31.5t32 91.5zM232 468q40 0 73.5 -15.5t51.5 -37.5v258q0 17 11.5 28t27.5 11t27.5 -11t11.5 -28v-488q0 -97 -53 -147.5t-143 -50.5q-100 0 -153.5 60.5 t-53.5 179.5q0 120 51.5 180.5t148.5 60.5z" />
<glyph unicode="e" horiz-adv-x="468" d="M34 228q0 115 54 177.5t153 62.5q58 0 99 -21.5t60 -56t27 -65.5t8 -61q0 -65 -54 -65h-267q0 -64 37 -99t100 -35q60 0 109 36q12 9 25 9q16 0 27 -11t11 -27t-13 -29q-60 -56 -159 -56q-217 0 -217 241zM241 396q-57 0 -89 -33.5t-37 -91.5h240q0 52 -27 88.5t-87 36.5 z" />
<glyph unicode="f" horiz-adv-x="303" d="M84 382h-29q-15 0 -25.5 10.5t-10.5 25.5t10.5 25.5t25.5 10.5h29v56q0 75 44 125t132 50q16 0 27 -11t11 -27t-11 -27t-27 -11q-49 0 -73.5 -26t-24.5 -69v-60h81q15 0 25.5 -10.5t10.5 -25.5t-10.5 -25.5t-25.5 -10.5h-81v-351q0 -17 -11 -28t-28 -11t-28 11t-11 28 v351z" />
<glyph unicode="g" horiz-adv-x="486" d="M421 298q0 -78 -50 -123.5t-139 -45.5q-60 0 -102 20q-14 -11 -14 -28q0 -38 67 -38h99q80 0 129.5 -33.5t49.5 -103.5q0 -74 -59.5 -110.5t-158.5 -36.5q-92 0 -153.5 33t-61.5 111q0 31 19 58t54 41q-59 19 -59 79q0 44 38 68q-35 46 -35 109q0 79 49.5 124.5 t137.5 45.5q59 0 103 -22q30 51 93 51q15 0 25.5 -10.5t10.5 -25.5t-10.5 -25.5t-25.5 -10.5q-29 0 -42 -21q35 -45 35 -106zM124 298q0 -43 28 -70.5t80 -27.5t80 27.5t28 70.5q0 44 -28 71.5t-80 27.5t-80 -27.5t-28 -71.5zM382 -54q0 32 -27.5 49t-72.5 17h-103 q-35 -6 -54 -25.5t-19 -43.5q0 -36 38.5 -54t99.5 -18q58 0 98 19t40 56z" />
<glyph unicode="h" horiz-adv-x="492" d="M138 673v-270q16 27 50.5 46t80.5 19q52 0 88 -15t53 -41.5t24 -55t7 -64.5v-261q0 -17 -11.5 -28t-27.5 -11t-27.5 11t-11.5 28v247q0 56 -24 86.5t-82 30.5q-61 0 -90 -31.5t-29 -82.5v-250q0 -17 -11 -28t-28 -11t-28 11t-11 28v642q0 17 11 28t28 11t28 -11t11 -28z " />
<glyph unicode="i" horiz-adv-x="198" d="M138 423v-392q0 -17 -11 -28t-28 -11t-28 11t-11 28v392q0 17 11 28t28 11t28 -11t11 -28zM100 536q-50 0 -50 50q0 53 50 53t50 -53q0 -50 -50 -50z" />
<glyph unicode="j" horiz-adv-x="202" d="M138 423v-445q0 -66 -41 -110t-106 -44q-17 0 -28 11t-11 28t11 28t28 11q30 0 49.5 22.5t19.5 53.5v445q0 17 11 28t28 11t28 -11t11 -28zM100 536q-50 0 -50 50q0 53 50 53t50 -53q0 -50 -50 -50z" />
<glyph unicode="k" horiz-adv-x="448" d="M138 673v-389l217 169q12 9 25 9q16 0 27.5 -11t11.5 -28q0 -19 -16 -32l-150 -115l165 -219q9 -12 9 -26q0 -17 -11.5 -28t-27.5 -11q-19 0 -31 15l-165 226l-54 -41v-161q0 -17 -11 -28t-28 -11t-28 11t-11 28v642q0 17 11 28t28 11t28 -11t11 -28z" />
<glyph unicode="l" horiz-adv-x="225" d="M100 712q16 0 27.5 -11t11.5 -28v-566q0 -37 31 -37q16 0 27.5 -11t11.5 -28t-11.5 -28t-27.5 -11q-109 0 -109 120v561q0 17 11.5 28t27.5 11z" />
<glyph unicode="m" horiz-adv-x="795" d="M138 423v-20q16 27 50.5 46t80.5 19q122 0 157 -85q19 38 56 61.5t90 23.5q52 0 88 -15t53 -41.5t24 -55t7 -64.5v-261q0 -17 -11 -28t-28 -11t-28 11t-11 28v247q0 56 -24 86.5t-82 30.5q-60 0 -89.5 -29.5t-29.5 -79.5v-255q0 -17 -11.5 -28t-27.5 -11t-27.5 11 t-11.5 28v247q0 56 -24 86.5t-82 30.5q-61 0 -90 -31.5t-29 -82.5v-250q0 -17 -11 -28t-28 -11t-28 11t-11 28v392q0 17 11 28t28 11t28 -11t11 -28z" />
<glyph unicode="n" horiz-adv-x="492" d="M138 423v-20q16 27 50.5 46t80.5 19q52 0 88 -15t53 -41.5t24 -55t7 -64.5v-261q0 -17 -11.5 -28t-27.5 -11t-27.5 11t-11.5 28v247q0 56 -24 86.5t-82 30.5q-61 0 -90 -31.5t-29 -82.5v-250q0 -17 -11 -28t-28 -11t-28 11t-11 28v392q0 17 11 28t28 11t28 -11t11 -28z " />
<glyph unicode="o" d="M455 227q0 -120 -55 -180t-156 -60q-100 0 -155 60t-55 180q0 121 54.5 181t155.5 60t156 -60t55 -181zM375 227q0 169 -131 169q-130 0 -130 -169q0 -168 130 -168q131 0 131 168z" />
<glyph unicode="p" horiz-adv-x="503" d="M138 423v-13q47 58 128 58q203 0 203 -240q0 -241 -203 -241q-43 0 -76.5 16t-51.5 40v-205q0 -16 -11 -27.5t-28 -11.5t-28 11.5t-11 27.5v585q0 17 11 28t28 11t28 -11t11 -28zM135 227q0 -82 34 -125t91 -43q63 0 96 42.5t33 125.5t-33.5 126t-96.5 43q-56 0 -90 -43 t-34 -126z" />
<glyph unicode="q" horiz-adv-x="486" d="M358 129v144q0 60 -32 91.5t-86 31.5q-127 0 -127 -168q0 -83 32.5 -126t94.5 -43q35 0 64.5 17.5t41.5 35.5zM233 -13q-97 0 -148.5 60.5t-51.5 180.5q0 119 53.5 179.5t153.5 60.5q90 0 143 -50.5t53 -147.5v-432q0 -16 -11 -27.5t-28 -11.5t-28 11.5t-11 27.5v202 q-18 -22 -51.5 -37.5t-73.5 -15.5z" />
<glyph unicode="r" horiz-adv-x="312" d="M138 423v-31q15 32 50 53t77 21q17 0 28 -11t11 -28t-11 -28t-28 -11q-59 0 -93 -35t-34 -92v-230q0 -17 -11 -28t-28 -11t-28 11t-11 28v392q0 17 11 28t28 11t28 -11t11 -28z" />
<glyph unicode="s" horiz-adv-x="424" d="M209 397q-35 0 -57 -15t-22 -41t26 -43t63.5 -28.5t75 -26t63.5 -44.5t26 -74q0 -67 -47 -102.5t-124 -35.5q-58 0 -104.5 22t-69.5 50q-9 13 -9 25q0 16 11 27t27 11q15 0 26 -10q54 -50 119 -50q93 0 93 60q0 27 -26 44.5t-63.5 29t-75 25.5t-63.5 44t-26 75 q0 62 44 95t113 33q109 0 156 -62q8 -12 8 -23q0 -16 -11 -26.5t-26 -10.5q-14 0 -26 11q-48 40 -101 40z" />
<glyph unicode="t" horiz-adv-x="288" d="M166 552v-98h60q15 0 25.5 -10.5t10.5 -25.5t-10.5 -25.5t-25.5 -10.5h-60v-263q0 -24 15 -37.5t36 -13.5q16 0 27 -11t11 -27t-11 -27t-27 -11q-61 0 -95 36t-34 95v259h-33q-15 0 -25.5 10.5t-10.5 25.5t10.5 25.5t25.5 10.5h33v98q0 16 11 27.5t28 11.5t28 -11.5 t11 -27.5z" />
<glyph unicode="u" horiz-adv-x="480" d="M240 -13q-57 0 -95.5 14.5t-58 42t-27.5 58t-8 70.5v251q0 17 11.5 28t27.5 11t27.5 -11t11.5 -28v-251q0 -111 111 -111t111 111v251q0 17 11.5 28t27.5 11t27.5 -11t11.5 -28v-251q0 -40 -8 -70.5t-27.5 -58t-58 -42t-95.5 -14.5z" />
<glyph unicode="v" horiz-adv-x="438" d="M219 -8q-25 0 -36 24l-165 389q-4 8 -4 18q0 17 11 28t28 11q26 0 38 -28l128 -316l128 316q12 28 38 28q17 0 28 -11t11 -28q0 -10 -4 -18l-165 -389q-11 -24 -36 -24z" />
<glyph unicode="w" horiz-adv-x="638" d="M401 22l-82 280l-82 -280q-9 -30 -38 -30q-28 0 -38 28l-143 385q-4 11 -4 18q0 17 11 28t28 11q27 0 36 -24l108 -307l86 303q8 28 36 28t36 -28l86 -303l108 307q9 24 36 24q17 0 28 -11t11 -28q0 -7 -4 -18l-143 -385q-10 -28 -38 -28q-29 0 -38 30z" />
<glyph unicode="x" horiz-adv-x="412" d="M321 8l-115 158l-115 -158q-12 -16 -32 -16q-17 0 -28 11t-11 28q0 13 8 24l132 176l-128 168q-8 11 -8 24q0 17 11 28t28 11q19 0 30 -14l113 -151l113 151q11 14 30 14q17 0 28 -11t11 -28q0 -13 -8 -24l-128 -168l132 -176q8 -11 8 -24q0 -17 -11 -28t-28 -11 q-20 0 -32 16z" />
<glyph unicode="y" horiz-adv-x="437" d="M38 -123q53 0 80.5 33.5t60.5 114.5l-161 380q-4 8 -4 18q0 17 11 28t28 11q26 0 38 -28l128 -316l128 316q12 28 38 28q17 0 28 -11t11 -28q0 -10 -4 -18l-191 -448q-34 -79 -78 -118.5t-113 -39.5q-16 0 -27.5 11.5t-11.5 27.5t11.5 27.5t27.5 11.5z" />
<glyph unicode="z" horiz-adv-x="407" d="M35 418q0 15 10.5 25.5t25.5 10.5h268q15 0 25.5 -10.5t10.5 -25.5q0 -12 -8 -23l-238 -321h215q15 0 26 -11t11 -26t-11 -26t-26 -11h-284q-15 0 -26 11t-11 26q0 12 8 23l238 322h-198q-15 0 -25.5 10.5t-10.5 25.5z" />
<glyph unicode="{" horiz-adv-x="346" d="M123 296q100 -14 100 -128q0 -27 -3.5 -84.5t-3.5 -85.5q0 -26 3 -39t17.5 -23t44.5 -10q15 0 25.5 -10.5t10.5 -25.5t-10.5 -25.5t-25.5 -10.5q-76 0 -112 35.5t-36 90.5q0 46 7.5 110t7.5 96q0 47 -21.5 63t-68.5 16q-14 0 -22.5 8.5t-8.5 22.5t8.5 22.5t22.5 8.5 q47 0 68.5 16t21.5 63q0 32 -7.5 96t-7.5 110q0 55 36 90.5t112 35.5q15 0 25.5 -10.5t10.5 -25.5t-10.5 -25.5t-25.5 -10.5q-42 0 -53.5 -17t-11.5 -55q0 -28 3.5 -85.5t3.5 -84.5q0 -114 -100 -128z" />
<glyph unicode="|" horiz-adv-x="218" d="M149 768v-888q0 -16 -11.5 -28t-28.5 -12t-28.5 12t-11.5 28v888q0 16 11.5 28t28.5 12t28.5 -12t11.5 -28z" />
<glyph unicode="}" horiz-adv-x="346" d="M221 296q-100 14 -100 128q0 27 3.5 84.5t3.5 85.5q0 26 -3 39t-17.5 23t-44.5 10q-15 0 -25.5 10.5t-10.5 25.5t10.5 25.5t25.5 10.5q76 0 112 -35.5t36 -90.5q0 -46 -7.5 -110t-7.5 -96q0 -47 21.5 -63t68.5 -16q14 0 22.5 -8.5t8.5 -22.5t-8.5 -22.5t-22.5 -8.5 q-47 0 -68.5 -16t-21.5 -63q0 -32 7.5 -96t7.5 -110q0 -55 -36 -90.5t-112 -35.5q-15 0 -25.5 10.5t-10.5 25.5t10.5 25.5t25.5 10.5q42 0 53.5 17t11.5 55q0 28 -3.5 85.5t-3.5 84.5q0 114 100 128z" />
<glyph unicode="~" horiz-adv-x="473" d="M324 304q15 0 25.5 6t15 11.5t9.5 15.5q10 21 32 21q14 0 24.5 -11t10.5 -26q0 -6 -3 -15q-11 -32 -39.5 -54t-74.5 -22q-40 0 -95 31t-81 31q-14 0 -24.5 -5.5t-15 -11.5t-9.5 -16q-11 -21 -32 -21q-14 0 -24.5 11t-10.5 26q0 7 3 15q29 76 113 76q40 0 96 -31t80 -31z " />
<glyph unicode="&#xa1;" horiz-adv-x="210" d="M105 -221q-47 0 -46 46l17 434q2 28 29 28q28 0 30 -28l16 -434q1 -46 -46 -46zM105 468q55 0 55 -56q0 -57 -55 -57t-55 57q0 56 55 56z" />
<glyph unicode="&#xa2;" horiz-adv-x="445" d="M34 227q0 218 176 239v49q0 14 10 24t24 10t24 -10t10 -24v-50q82 -12 125 -66q9 -13 9 -26q0 -16 -11.5 -27t-26.5 -11q-16 0 -29 13q-48 48 -101 48q-130 0 -130 -169q0 -168 130 -168q10 0 20 1.5t17.5 3t16.5 5t13.5 6t12.5 7.5t11 7t10.5 7.5t8.5 6.5q11 8 23 8 q15 0 26.5 -11t11.5 -27q0 -17 -15 -31q-52 -44 -122 -53v-57q0 -14 -10 -24t-24 -10t-24 10t-10 24v57q-85 9 -130.5 68.5t-45.5 169.5z" />
<glyph unicode="&#xa3;" horiz-adv-x="589" d="M516 136q17 0 29 -12t12 -29q0 -9 -5 -21q-39 -89 -150 -89q-30 0 -88 23t-90 23t-69 -19t-51 -19q-17 0 -28.5 11.5t-11.5 28.5q0 20 16 34q31 27 54.5 64t23.5 73q0 35 -16 72h-58q-16 0 -27 11t-11 27t11 27t27 11h22q-40 76 -40 139q0 85 60 140.5t158 55.5 q169 0 225 -134q3 -9 3 -16q0 -17 -12 -28.5t-28 -11.5q-25 0 -37 25q-39 87 -151 87q-63 0 -99.5 -32.5t-36.5 -85.5q0 -59 46 -139h162q16 0 27 -11t11 -27t-11 -27t-27 -11h-130q10 -28 10 -59q0 -78 -61 -129q24 13 53 13q39 0 91 -17.5t77 -17.5q59 0 83 47 q11 23 37 23z" />
<glyph unicode="&#xa4;" horiz-adv-x="467" d="M235 123q-61 0 -104 29l-39 -37q-12 -12 -28 -12t-27.5 12t-11.5 29q0 18 12 31l38 37q-27 42 -27 99q0 56 29 101l-40 37q-12 12 -12 30q0 17 11.5 29.5t27.5 12.5q15 0 28 -13l40 -39q45 30 103 30q57 0 101 -29l39 38q12 13 28 13t28 -12.5t12 -29.5q0 -18 -13 -31 l-39 -36q29 -44 29 -101q0 -54 -28 -100l38 -36q13 -14 13 -31t-11.5 -29t-28.5 -12q-16 0 -28 12l-37 37q-44 -29 -103 -29zM235 420q-48 0 -78 -31.5t-30 -77.5t30 -77.5t78 -31.5q46 0 76 31.5t30 77.5t-30 77.5t-76 31.5z" />
<glyph unicode="&#xa5;" horiz-adv-x="528" d="M456 291q0 -15 -10.5 -26t-24.5 -11h-115v-44h115q14 0 24.5 -10.5t10.5 -25.5t-10.5 -26t-24.5 -11h-115v-103q0 -17 -12.5 -29.5t-29.5 -12.5t-29.5 12.5t-12.5 29.5v103h-114q-14 0 -24.5 11t-10.5 26t10.5 25.5t24.5 10.5h114v44h-114q-14 0 -24.5 11t-10.5 26 t10.5 25.5t24.5 10.5h103l-186 290q-6 11 -6 22q0 17 12.5 29.5t29.5 12.5q23 0 39 -25l164 -266l164 266q16 25 39 25q17 0 29.5 -12.5t12.5 -29.5q0 -11 -6 -22l-186 -290h104q14 0 24.5 -10.5t10.5 -25.5z" />
<glyph unicode="&#xa6;" horiz-adv-x="218" d="M149 768v-372q0 -16 -11.5 -28t-28.5 -12t-28.5 12t-11.5 28v372q0 16 11.5 28t28.5 12t28.5 -12t11.5 -28zM149 253v-373q0 -16 -11.5 -28t-28.5 -12t-28.5 12t-11.5 28v373q0 17 11.5 28.5t28.5 11.5t28.5 -11.5t11.5 -28.5z" />
<glyph unicode="&#xa7;" horiz-adv-x="500" d="M386 203q0 34 -28.5 61t-63 40.5t-82 30t-66.5 26.5q-33 -28 -33 -79q0 -44 40.5 -73t112 -52.5t88.5 -32.5q32 30 32 79zM31 282q0 74 55 127q-41 48 -41 110q0 72 53.5 120t156.5 48q125 0 201 -90q9 -11 9 -25q0 -17 -11.5 -29t-28.5 -12q-16 0 -30 14 q-20 19 -35 30.5t-43.5 22.5t-61.5 11q-65 0 -95.5 -26t-30.5 -64q0 -36 25 -62.5t63 -40.5t82 -31.5t82 -36.5t63 -56t25 -89q0 -73 -56 -127q42 -47 42 -109q0 -73 -53.5 -120.5t-156.5 -47.5q-129 0 -201 89q-9 11 -9 26q0 17 11.5 29t27.5 12q15 0 31 -14 q66 -64 140 -64q63 0 94 26t31 64q0 43 -35 70.5t-84.5 44.5t-99.5 37t-85 60.5t-35 102.5z" />
<glyph unicode="&#xa8;" horiz-adv-x="322" d="M77 527q-42 0 -42 44q0 46 42 46q43 0 43 -46q0 -44 -43 -44zM245 527q-43 0 -43 44q0 46 43 46q42 0 42 -46q0 -44 -42 -44z" />
<glyph unicode="&#xa9;" horiz-adv-x="797" d="M397 155q-159 0 -159 182q0 183 159 183q46 0 79 -18t46 -41q4 -7 4 -15q0 -11 -8 -19t-19 -8q-10 0 -20 10q-36 36 -82 36q-49 0 -74 -28.5t-25 -99.5q0 -68 25 -97.5t74 -29.5q55 0 85 30q9 9 20 9t18.5 -8t7.5 -19q0 -9 -5 -16q-35 -51 -126 -51zM398 687 q170 0 259 -87.5t89 -263.5q0 -175 -89.5 -262.5t-258.5 -87.5q-167 0 -257 88t-90 262q0 175 90 263t257 88zM398 47q284 0 284 289q0 290 -284 290q-282 0 -282 -290q0 -289 282 -289z" />
<glyph unicode="&#xaa;" horiz-adv-x="348" d="M322 282q0 -11 -8 -19.5t-18 -8.5h-245q-10 0 -18 8.5t-8 19.5t7.5 19t18.5 8h245q11 0 18.5 -8t7.5 -19zM176 634q-36 0 -70 -30q-7 -7 -17 -7t-17.5 8t-7.5 19q0 12 10 23q38 40 102 40q65 0 98 -29.5t33 -81.5v-183q0 -11 -8.5 -19.5t-19.5 -8.5t-19.5 8.5t-8.5 19.5 v11q-28 -43 -90 -43q-54 0 -86 27t-32 73q0 96 127 96h81v18q0 27 -19.5 43t-55.5 16zM169 410q35 0 58.5 19t23.5 53v28h-78q-73 0 -73 -49q0 -51 69 -51z" />
<glyph unicode="&#xab;" horiz-adv-x="522" d="M65 212q0 12 8 22l159 185q10 12 23 12t22 -9.5t9 -22.5q0 -12 -8 -21l-148 -166l148 -167q8 -9 8 -21q0 -13 -9 -22t-22 -9t-23 12l-159 184q-8 11 -8 23zM236 212q0 12 8 22l160 185q9 12 23 12q12 0 21 -9.5t9 -22.5q0 -12 -8 -21l-148 -166l148 -167q8 -9 8 -21 q0 -13 -9 -22t-21 -9q-14 0 -23 12l-160 184q-8 11 -8 23z" />
<glyph unicode="&#xac;" horiz-adv-x="565" d="M530 279v-247q0 -17 -11 -28.5t-27 -11.5t-27 11.5t-11 28.5v212h-383q-15 0 -25.5 11t-10.5 27q0 15 10.5 26t25.5 11h421q16 0 27 -11.5t11 -28.5z" />
<glyph unicode="&#xae;" horiz-adv-x="383" d="M187 687q149 0 149 -152q0 -153 -149 -153q-70 0 -108.5 38.5t-38.5 114.5t38.5 114t108.5 38zM188 408q117 0 117 127q0 126 -117 126t-117 -126q0 -127 117 -127zM177 516h-19v-46q0 -14 -14 -14t-14 14v129q0 14 14 14h55q22 0 36 -14t14 -34q0 -21 -11.5 -35 t-28.5 -14l32 -38q3 -4 3 -9q0 -13 -13 -13q-7 0 -12 6zM158 540h40q24 0 24 25q0 24 -24 24h-40v-49z" />
<glyph unicode="&#xaf;" horiz-adv-x="388" d="M315 562q0 -13 -9 -22.5t-22 -9.5h-180q-13 0 -22 9.5t-9 22.5t9 22t22 9h180q13 0 22 -9t9 -22z" />
<glyph unicode="&#xb0;" horiz-adv-x="363" d="M318 550q0 -57 -39.5 -96.5t-97.5 -39.5q-57 0 -96.5 40t-39.5 96q0 57 39.5 97t96.5 40q58 0 97.5 -40t39.5 -97zM268 550q0 36 -24.5 62t-62.5 26q-37 0 -61.5 -26t-24.5 -62q0 -35 24.5 -60.5t61.5 -25.5q38 0 62.5 25.5t24.5 60.5z" />
<glyph unicode="&#xb1;" horiz-adv-x="454" d="M454 315q0 -15 -10.5 -25.5t-24.5 -10.5h-155v-146q0 -16 -11 -27t-26 -11t-26 11t-11 27v146h-155q-14 0 -24.5 10.5t-10.5 25.5t10.5 26t24.5 11h155v145q0 16 11 27.5t26 11.5t26 -11.5t11 -27.5v-145h155q14 0 24.5 -11t10.5 -26zM454 36q0 -15 -10.5 -25.5 t-24.5 -10.5h-384q-14 0 -24.5 10.5t-10.5 25.5t10.5 26t24.5 11h384q14 0 24.5 -11t10.5 -26z" />
<glyph unicode="&#xb2;" horiz-adv-x="276" d="M39 682q12 21 38 34.5t59 13.5q51 0 81.5 -25t30.5 -67q0 -33 -24.5 -58.5t-54 -38.5t-54 -29t-24.5 -31h130q11 0 19 -8.5t8 -19.5q0 -12 -8 -20t-19 -8h-167q-12 0 -20.5 8.5t-8.5 21.5q0 33 16.5 58.5t40 40t47.5 26.5t40.5 26t16.5 32q0 16 -13 26t-37 10 q-31 0 -55 -28q-9 -9 -20 -9t-19 8t-8 20q0 8 5 17z" />
<glyph unicode="&#xb3;" horiz-adv-x="266" d="M157 613q42 0 63.5 -29t21.5 -64q0 -47 -29.5 -74t-88.5 -27q-37 0 -63.5 16t-39.5 36q-5 9 -5 18q0 11 7.5 19t18.5 8q13 0 22 -11q23 -31 60 -31q57 0 57 46q0 43 -51 43h-22q-11 0 -18.5 8t-7.5 19q0 10 8 21l54 56h-89q-12 0 -20 8t-8 20t8 20.5t20 8.5h143 q11 0 19.5 -8.5t8.5 -20.5t-9 -21z" />
<glyph unicode="&#xb4;" horiz-adv-x="376" d="M121 517q-21 18 -4 37l87 108q9 11 21.5 11t25.5 -12q27 -27 4 -49l-98 -94q-18 -18 -36 -1z" />
<glyph unicode="&#xb5;" horiz-adv-x="480" d="M129 28v-194q0 -16 -11.5 -27.5t-27.5 -11.5t-27.5 11.5t-11.5 27.5v589q0 17 11.5 28t27.5 11t27.5 -11t11.5 -28v-260q0 -102 111 -102t111 111v251q0 17 11.5 28t27.5 11t27.5 -11t11.5 -28v-251q0 -40 -8 -70.5t-27.5 -58t-58 -42t-95.5 -14.5q-81 0 -111 41z" />
<glyph unicode="&#xb6;" horiz-adv-x="529" d="M494 633q0 -17 -12 -28.5t-28 -11.5h-22v-294q0 -167 -70 -249.5t-200 -82.5q-123 0 -123 52q0 16 11 27t28 11q11 0 30.5 -6.5t31.5 -6.5q100 0 100 160v117h-28q-72 0 -122.5 51.5t-50.5 124.5t50 124.5t123 51.5h242q16 0 28 -11.5t12 -28.5zM350 593h-43v-375 q0 -108 -57 -165q54 28 77 82t23 149v309z" />
<glyph unicode="&#xb7;" horiz-adv-x="190" d="M94 244q-55 0 -55 56q0 57 55 57t55 -57q0 -56 -55 -56z" />
<glyph unicode="&#xb8;" horiz-adv-x="320" d="M252 -139q0 -91 -102 -91q-44 0 -71 20q-9 6 -9 18q0 9 6.5 15.5t14.5 6.5q6 0 12 -3q24 -12 49 -12q26 0 38.5 10t12.5 36q0 44 -48 44q-9 0 -23 -2.5t-20 -2.5q-19 0 -19 22l2 78h41l-5 -56q16 2 31 2q43 0 66.5 -21.5t23.5 -63.5z" />
<glyph unicode="&#xb9;" horiz-adv-x="209" d="M133 422q-13 0 -22 9t-9 22v189l-30 -21q-8 -5 -18 -5q-11 0 -20 9t-9 21q0 17 14 25l77 50q8 6 18 6q12 0 21 -8.5t9 -21.5v-244q0 -13 -9.5 -22t-21.5 -9z" />
<glyph unicode="&#xba;" horiz-adv-x="354" d="M322 524q0 -81 -37.5 -122t-107.5 -41t-108 41t-38 122t38 122t108 41t107.5 -41t37.5 -122zM265 524q0 112 -88 112t-88 -112t88 -112t88 112zM327 282q0 -11 -8 -19.5t-18 -8.5h-251q-10 0 -18 8.5t-8 19.5t7.5 19t18.5 8h251q11 0 18.5 -8t7.5 -19z" />
<glyph unicode="&#xbb;" horiz-adv-x="522" d="M457 212q0 -12 -9 -23l-159 -184q-11 -12 -23 -12t-21 9t-9 22q0 12 8 21l148 167l-148 166q-8 9 -8 21q0 13 9 22.5t21 9.5t23 -12l159 -185q9 -9 9 -22zM286 212q0 -10 -9 -23l-159 -184q-10 -12 -23 -12t-21.5 9t-8.5 22q0 12 8 21l148 167l-148 166q-8 9 -8 21 q0 13 8.5 22.5t21.5 9.5t23 -12l159 -185q9 -11 9 -22z" />
<glyph unicode="&#xbc;" horiz-adv-x="500" d="M87 39l241 620q7 22 30 22q14 0 24 -10t10 -24q0 -4 -4 -16l-240 -617q-6 -22 -30 -22q-14 0 -24 10t-10 24q0 6 3 13zM132 379q-13 0 -22 9t-9 22v189l-30 -21q-8 -5 -18 -5q-11 0 -20 9t-9 21q0 17 14 25l77 50q8 6 18 6q12 0 21 -8.5t9 -21.5v-244q0 -13 -9.5 -22 t-21.5 -9zM432 112h15q10 0 19 -8.5t9 -19.5t-8.5 -19.5t-19.5 -8.5h-15v-32q0 -12 -9 -21.5t-22 -9.5q-12 0 -21 9t-9 22v32h-106q-9 0 -18 9t-9 20q0 10 6 18l132 181q11 13 24 13q12 0 22 -9t10 -22v-154zM312 112h59v82z" />
<glyph unicode="&#xbd;" horiz-adv-x="536" d="M300 257q12 21 37.5 34.5t58.5 13.5q51 0 81.5 -25t30.5 -67q0 -33 -24.5 -58.5t-54 -38.5t-54 -29t-24.5 -31h130q11 0 19.5 -8.5t8.5 -19.5q0 -12 -8.5 -20t-19.5 -8h-167q-12 0 -20.5 8.5t-8.5 21.5q0 41 25.5 70t55.5 42t55.5 31.5t25.5 39.5q0 36 -51 36 q-30 0 -54 -28q-9 -9 -20 -9t-19.5 8t-8.5 20q0 7 6 17zM89 39l241 620q7 22 30 22q14 0 24 -10t10 -24q0 -4 -4 -16l-240 -617q-6 -22 -30 -22q-14 0 -24 10t-10 24q0 6 3 13zM134 379q-13 0 -22 9t-9 22v189l-30 -21q-8 -5 -18 -5q-11 0 -20 9t-9 21q0 17 14 25l77 50 q8 6 18 6q12 0 21 -8.5t9 -21.5v-244q0 -13 -9.5 -22t-21.5 -9z" />
<glyph unicode="&#xbe;" horiz-adv-x="570" d="M143 39l241 620q7 22 30 22q14 0 24 -10t10 -24q0 -4 -4 -16l-240 -617q-6 -22 -30 -22q-14 0 -24 10t-10 24q0 6 3 13zM162 570q42 0 63.5 -29t21.5 -64q0 -47 -29.5 -74t-88.5 -27q-37 0 -63.5 16t-39.5 36q-5 9 -5 18q0 11 7.5 19t18.5 8q13 0 22 -11q23 -31 60 -31 q57 0 57 46q0 43 -51 43h-22q-11 0 -18.5 8t-7.5 19q0 10 8 21l54 56h-89q-12 0 -20 8t-8 20t8 20.5t20 8.5h143q11 0 19.5 -8.5t8.5 -20.5t-9 -21zM488 112h15q10 0 19 -8.5t9 -19.5t-8.5 -19.5t-19.5 -8.5h-15v-32q0 -12 -9 -21.5t-22 -9.5q-12 0 -21 9t-9 22v32h-106 q-9 0 -18 9t-9 20q0 10 6 18l132 181q11 13 24 13q12 0 22 -9t10 -22v-154zM368 112h59v82z" />
<glyph unicode="&#xbf;" horiz-adv-x="458" d="M280 288q32 -32 32 -85q0 -35 -20.5 -63t-50 -47t-59 -38.5t-50 -47t-20.5 -62.5q0 -46 32 -71.5t88 -25.5q52 0 83.5 27.5t31.5 78.5q0 17 12 29t29 12t29 -12t12 -29q0 -82 -52.5 -131.5t-144.5 -49.5q-96 0 -149.5 45t-53.5 127q0 47 20.5 84t50 58.5t59 39t50 35.5 t20.5 37t-12 36q-8 12 -8 25q0 17 12 29t29 12t30 -13zM253 468q55 0 55 -56q0 -57 -55 -57t-55 57q0 56 55 56z" />
<glyph unicode="&#xc0;" horiz-adv-x="618" d="M417 269l-108 281l-108 -281h216zM444 189h-270l-69 -170q-11 -27 -39 -27q-17 0 -29.5 12.5t-12.5 29.5q0 8 3 15l243 605q10 27 39 27t39 -27l243 -605q3 -7 3 -15q0 -17 -12.5 -29.5t-29.5 -12.5q-28 0 -39 27zM369 723q-18 -17 -36 1l-98 94q-23 22 4 49 q13 12 25.5 12t21.5 -11l87 -108q17 -19 -4 -37z" />
<glyph unicode="&#xc1;" horiz-adv-x="618" d="M417 269l-108 281l-108 -281h216zM444 189h-270l-69 -170q-11 -27 -39 -27q-17 0 -29.5 12.5t-12.5 29.5q0 8 3 15l243 605q10 27 39 27t39 -27l243 -605q3 -7 3 -15q0 -17 -12.5 -29.5t-29.5 -12.5q-28 0 -39 27zM248 723q-21 18 -4 37l87 108q9 11 21.5 11t25.5 -12 q26 -27 4 -49l-98 -94q-18 -18 -36 -1z" />
<glyph unicode="&#xc2;" horiz-adv-x="618" d="M417 269l-108 281l-108 -281h216zM444 189h-270l-69 -170q-11 -27 -39 -27q-17 0 -29.5 12.5t-12.5 29.5q0 8 3 15l243 605q10 27 39 27t39 -27l243 -605q3 -7 3 -15q0 -17 -12.5 -29.5t-29.5 -12.5q-28 0 -39 27zM384 724l-76 58l-76 -58q-9 -7 -20 -7q-13 0 -22 9 t-9 22q0 16 14 26l94 70q9 7 19 7t19 -7l94 -70q14 -10 14 -26q0 -13 -9 -22t-22 -9q-11 0 -20 7z" />
<glyph unicode="&#xc3;" horiz-adv-x="618" d="M417 269l-108 281l-108 -281h216zM444 189h-270l-69 -170q-11 -27 -39 -27q-17 0 -29.5 12.5t-12.5 29.5q0 8 3 15l243 605q10 27 39 27t39 -27l243 -605q3 -7 3 -15q0 -17 -12.5 -29.5t-29.5 -12.5q-28 0 -39 27zM368 791q20 0 38 22q10 14 25 14q13 0 22 -9t9 -22 q0 -8 -3 -14q-24 -52 -87 -52q-28 0 -66.5 18t-55.5 18q-22 0 -38 -22q-10 -14 -26 -14q-12 0 -21 9.5t-9 22.5q0 8 3 14q25 52 87 52q28 0 66 -18.5t56 -18.5z" />
<glyph unicode="&#xc4;" horiz-adv-x="618" d="M417 269l-108 281l-108 -281h216zM444 189h-270l-69 -170q-11 -27 -39 -27q-17 0 -29.5 12.5t-12.5 29.5q0 8 3 15l243 605q10 27 39 27t39 -27l243 -605q3 -7 3 -15q0 -17 -12.5 -29.5t-29.5 -12.5q-28 0 -39 27zM225 740q-42 0 -42 44q0 46 42 46q43 0 43 -46 q0 -44 -43 -44zM393 740q-43 0 -43 44q0 46 43 46q42 0 42 -46q0 -44 -42 -44z" />
<glyph unicode="&#xc5;" horiz-adv-x="618" d="M417 269l-108 281l-108 -281h216zM444 189h-270l-69 -170q-11 -27 -39 -27q-17 0 -29.5 12.5t-12.5 29.5q0 8 3 15l243 605q10 27 39 27t39 -27l243 -605q3 -7 3 -15q0 -17 -12.5 -29.5t-29.5 -12.5q-28 0 -39 27zM308 746q56 0 56 55q0 54 -56 54t-56 -54q0 -55 56 -55z M308 899q52 0 78 -25.5t26 -72.5t-26.5 -73t-77.5 -26t-77.5 26t-26.5 73t26 72.5t78 25.5z" />
<glyph unicode="&#xc6;" horiz-adv-x="850" d="M251 269h151v236zM445 673h313q17 0 29 -12t12 -29t-12 -29t-29 -12h-272v-212h207q17 0 28.5 -11.5t11.5 -28.5t-11.5 -28.5t-28.5 -11.5h-207v-217h283q17 0 29 -12t12 -29t-12 -29t-29 -12h-325q-17 0 -29.5 12.5t-12.5 29.5v147h-198l-112 -178q-13 -19 -35 -19 q-17 0 -29.5 12.5t-12.5 29.5q0 13 8 26l386 592q13 21 36 21z" />
<glyph unicode="&#xc7;" horiz-adv-x="635" d="M448 -139q0 -91 -102 -91q-44 0 -71 20q-9 6 -9 18q0 9 6.5 15.5t14.5 6.5q6 0 12 -3q24 -12 49 -12q26 0 38.5 10t12.5 36q0 44 -48 44q-9 0 -23 -2.5t-20 -2.5q-19 0 -19 22l1 68q-251 32 -251 346q0 175 81 263t231 88q77 0 137 -29t95 -78q9 -14 9 -27q0 -17 -12 -29 t-29 -12q-20 0 -34 17q-64 80 -166 80q-226 0 -226 -273q0 -142 56 -207t170 -65q103 0 172 75q14 15 31 15t29 -12t12 -29q0 -13 -8 -24q-34 -48 -97.5 -75.5t-138.5 -27.5q-4 0 -10.5 0.5t-9.5 0.5l-4 -43q16 2 31 2q43 0 66.5 -21.5t23.5 -63.5z" />
<glyph unicode="&#xc8;" horiz-adv-x="520" d="M439 0h-325q-17 0 -29.5 12.5t-12.5 29.5v589q0 17 12.5 29.5t29.5 12.5h314q17 0 29 -12t12 -29t-12 -29t-29 -12h-272v-212h207q17 0 28.5 -11.5t11.5 -28.5t-11.5 -28.5t-28.5 -11.5h-207v-217h283q17 0 29 -12t12 -29t-12 -29t-29 -12zM340 723q-18 -17 -36 1l-98 94 q-22 22 4 49q13 12 25.5 12t21.5 -11l87 -108q17 -19 -4 -37z" />
<glyph unicode="&#xc9;" horiz-adv-x="520" d="M439 0h-325q-17 0 -29.5 12.5t-12.5 29.5v589q0 17 12.5 29.5t29.5 12.5h314q17 0 29 -12t12 -29t-12 -29t-29 -12h-272v-212h207q17 0 28.5 -11.5t11.5 -28.5t-11.5 -28.5t-28.5 -11.5h-207v-217h283q17 0 29 -12t12 -29t-12 -29t-29 -12zM225 723q-21 18 -4 37l87 108 q9 11 21.5 11t25.5 -12q27 -27 4 -49l-98 -94q-18 -18 -36 -1z" />
<glyph unicode="&#xca;" horiz-adv-x="520" d="M439 0h-325q-17 0 -29.5 12.5t-12.5 29.5v589q0 17 12.5 29.5t29.5 12.5h314q17 0 29 -12t12 -29t-12 -29t-29 -12h-272v-212h207q17 0 28.5 -11.5t11.5 -28.5t-11.5 -28.5t-28.5 -11.5h-207v-217h283q17 0 29 -12t12 -29t-12 -29t-29 -12zM359 724l-76 58l-76 -58 q-9 -7 -20 -7q-13 0 -22 9t-9 22q0 16 14 26l94 70q9 7 19 7t19 -7l94 -70q14 -10 14 -26q0 -13 -9 -22t-22 -9q-11 0 -20 7z" />
<glyph unicode="&#xcb;" horiz-adv-x="520" d="M439 0h-325q-17 0 -29.5 12.5t-12.5 29.5v589q0 17 12.5 29.5t29.5 12.5h314q17 0 29 -12t12 -29t-12 -29t-29 -12h-272v-212h207q17 0 28.5 -11.5t11.5 -28.5t-11.5 -28.5t-28.5 -11.5h-207v-217h283q17 0 29 -12t12 -29t-12 -29t-29 -12zM196 740q-42 0 -42 44 q0 46 42 46q43 0 43 -46q0 -44 -43 -44zM364 740q-43 0 -43 44q0 46 43 46q42 0 42 -46q0 -44 -42 -44z" />
<glyph unicode="&#xcc;" horiz-adv-x="228" d="M156 639v-605q0 -17 -12.5 -29.5t-29.5 -12.5t-29.5 12.5t-12.5 29.5v605q0 17 12.5 29.5t29.5 12.5t29.5 -12.5t12.5 -29.5zM177 723q-18 -17 -36 1l-98 94q-23 22 4 49q13 12 25.5 12t21.5 -11l87 -108q17 -19 -4 -37z" />
<glyph unicode="&#xcd;" horiz-adv-x="228" d="M156 639v-605q0 -17 -12.5 -29.5t-29.5 -12.5t-29.5 12.5t-12.5 29.5v605q0 17 12.5 29.5t29.5 12.5t29.5 -12.5t12.5 -29.5zM70 723q-21 18 -4 37l87 108q9 11 21.5 11t25.5 -12q26 -27 4 -49l-98 -94q-18 -18 -36 -1z" />
<glyph unicode="&#xce;" horiz-adv-x="228" d="M156 639v-605q0 -17 -12.5 -29.5t-29.5 -12.5t-29.5 12.5t-12.5 29.5v605q0 17 12.5 29.5t29.5 12.5t29.5 -12.5t12.5 -29.5zM190 724l-76 58l-76 -58q-9 -7 -20 -7q-13 0 -22 9t-9 22q0 16 14 26l94 70q9 7 19 7t19 -7l94 -70q14 -10 14 -26q0 -13 -9 -22t-22 -9 q-11 0 -20 7z" />
<glyph unicode="&#xcf;" horiz-adv-x="228" d="M156 639v-605q0 -17 -12.5 -29.5t-29.5 -12.5t-29.5 12.5t-12.5 29.5v605q0 17 12.5 29.5t29.5 12.5t29.5 -12.5t12.5 -29.5zM31 740q-42 0 -42 44q0 46 42 46q43 0 43 -46q0 -44 -43 -44zM199 740q-43 0 -43 44q0 46 43 46q42 0 42 -46q0 -44 -42 -44z" />
<glyph unicode="&#xd0;" horiz-adv-x="610" d="M124 673h136q153 0 232 -79t79 -258t-79 -257.5t-232 -78.5h-136q-17 0 -29.5 12.5t-12.5 29.5v267h-27q-15 0 -26 11.5t-11 27.5t11 27t26 11h27v245q0 17 12.5 29.5t29.5 12.5zM166 591v-205h175q16 0 27 -11t11 -27t-11 -27.5t-27 -11.5h-175v-227h94q111 0 168 58.5 t57 195.5t-57 196t-168 59h-94z" />
<glyph unicode="&#xd1;" horiz-adv-x="619" d="M471 173v466q0 17 12.5 29.5t29.5 12.5t29.5 -12.5t12.5 -29.5v-605q0 -17 -12.5 -29.5t-29.5 -12.5q-23 0 -36 19l-329 489v-466q0 -17 -12.5 -29.5t-29.5 -12.5t-29.5 12.5t-12.5 29.5v605q0 17 12.5 29.5t29.5 12.5q23 0 36 -19zM374 791q20 0 38 22q10 14 25 14 q13 0 22 -9t9 -22q0 -8 -3 -14q-24 -52 -87 -52q-28 0 -66.5 18t-55.5 18q-22 0 -38 -22q-10 -14 -26 -14q-12 0 -21 9.5t-9 22.5q0 8 3 14q25 52 87 52q28 0 66 -18.5t56 -18.5z" />
<glyph unicode="&#xd2;" horiz-adv-x="698" d="M349 -14q-150 0 -230 88t-80 262q0 175 80 263t230 88t230 -88t80 -263q0 -174 -80 -262t-230 -88zM349 609q-110 0 -167 -69t-57 -204q0 -134 57 -203t167 -69t167 69t57 203q0 135 -57 204t-167 69zM421 723q-18 -17 -36 1l-98 94q-23 22 4 49q13 12 25.5 12t21.5 -11 l87 -108q17 -19 -4 -37z" />
<glyph unicode="&#xd3;" horiz-adv-x="698" d="M349 -14q-150 0 -230 88t-80 262q0 175 80 263t230 88t230 -88t80 -263q0 -174 -80 -262t-230 -88zM349 609q-110 0 -167 -69t-57 -204q0 -134 57 -203t167 -69t167 69t57 203q0 135 -57 204t-167 69zM299 723q-21 18 -4 37l87 108q9 11 21.5 11t25.5 -12q27 -27 4 -49 l-98 -94q-18 -18 -36 -1z" />
<glyph unicode="&#xd4;" horiz-adv-x="698" d="M349 -14q-150 0 -230 88t-80 262q0 175 80 263t230 88t230 -88t80 -263q0 -174 -80 -262t-230 -88zM349 609q-110 0 -167 -69t-57 -204q0 -134 57 -203t167 -69t167 69t57 203q0 135 -57 204t-167 69zM431 724l-76 58l-76 -58q-9 -7 -20 -7q-13 0 -22 9t-9 22q0 16 14 26 l94 70q9 7 19 7t19 -7l94 -70q14 -10 14 -26q0 -13 -9 -22t-22 -9q-11 0 -20 7z" />
<glyph unicode="&#xd5;" horiz-adv-x="698" d="M349 -14q-150 0 -230 88t-80 262q0 175 80 263t230 88t230 -88t80 -263q0 -174 -80 -262t-230 -88zM349 609q-110 0 -167 -69t-57 -204q0 -134 57 -203t167 -69t167 69t57 203q0 135 -57 204t-167 69zM412 791q20 0 38 22q10 14 25 14q13 0 22 -9t9 -22q0 -8 -3 -14 q-24 -52 -87 -52q-28 0 -66.5 18t-55.5 18q-22 0 -38 -22q-10 -14 -26 -14q-12 0 -21 9.5t-9 22.5q0 8 3 14q25 52 87 52q28 0 66 -18.5t56 -18.5z" />
<glyph unicode="&#xd6;" horiz-adv-x="698" d="M349 -14q-150 0 -230 88t-80 262q0 175 80 263t230 88t230 -88t80 -263q0 -174 -80 -262t-230 -88zM349 609q-110 0 -167 -69t-57 -204q0 -134 57 -203t167 -69t167 69t57 203q0 135 -57 204t-167 69zM269 740q-42 0 -42 44q0 46 42 46q43 0 43 -46q0 -44 -43 -44z M437 740q-43 0 -43 44q0 46 43 46q42 0 42 -46q0 -44 -42 -44z" />
<glyph unicode="&#xd7;" horiz-adv-x="362" d="M181 271l117 112q12 12 27 12t26 -11.5t11 -27.5q0 -15 -12 -27l-118 -111l118 -110q12 -12 12 -28t-11 -27t-26 -11q-14 0 -27 12l-117 111l-118 -111q-13 -12 -26 -12q-15 0 -26 11t-11 27q0 17 11 28l119 110l-119 111q-11 11 -11 27t11 27.5t26 11.5q14 0 26 -12z " />
<glyph unicode="&#xd8;" horiz-adv-x="698" d="M349 -14q-118 0 -193 54l-42 -53q-10 -13 -26 -13q-14 0 -24 10.5t-10 24.5q0 12 9 23l44 56q-68 90 -68 248q0 175 80 263t230 88q119 0 193 -55l41 51q11 13 26 13q14 0 24.5 -10.5t10.5 -25.5q0 -11 -8 -21l-45 -56q68 -88 68 -247q0 -174 -80 -262t-230 -88zM349 609 q-110 0 -167 -69t-57 -204q0 -111 39 -177l325 407q-55 43 -140 43zM573 336q0 107 -39 176l-325 -406q54 -42 140 -42q110 0 167 69t57 203z" />
<glyph unicode="&#xd9;" horiz-adv-x="616" d="M310 -14q-240 0 -240 226v427q0 17 12.5 29.5t29.5 12.5t29.5 -12.5t12.5 -29.5v-427q0 -148 156 -148q153 0 153 148v423q0 19 13 32.5t31 13.5q19 0 31.5 -13.5t12.5 -32.5v-423q0 -46 -11 -83.5t-36.5 -71t-74.5 -52.5t-119 -19zM374 723q-18 -17 -36 1l-98 94 q-22 22 4 49q13 12 25.5 12t21.5 -11l87 -108q17 -19 -4 -37z" />
<glyph unicode="&#xda;" horiz-adv-x="616" d="M310 -14q-240 0 -240 226v427q0 17 12.5 29.5t29.5 12.5t29.5 -12.5t12.5 -29.5v-427q0 -148 156 -148q153 0 153 148v423q0 19 13 32.5t31 13.5q19 0 31.5 -13.5t12.5 -32.5v-423q0 -46 -11 -83.5t-36.5 -71t-74.5 -52.5t-119 -19zM269 723q-21 18 -4 37l87 108 q9 11 21.5 11t25.5 -12q27 -27 4 -49l-98 -94q-18 -18 -36 -1z" />
<glyph unicode="&#xdb;" horiz-adv-x="616" d="M310 -14q-240 0 -240 226v427q0 17 12.5 29.5t29.5 12.5t29.5 -12.5t12.5 -29.5v-427q0 -148 156 -148q153 0 153 148v423q0 19 13 32.5t31 13.5q19 0 31.5 -13.5t12.5 -32.5v-423q0 -46 -11 -83.5t-36.5 -71t-74.5 -52.5t-119 -19zM391 724l-76 58l-76 -58q-9 -7 -20 -7 q-13 0 -22 9t-9 22q0 16 14 26l94 70q9 7 19 7t19 -7l94 -70q14 -10 14 -26q0 -13 -9 -22t-22 -9q-11 0 -20 7z" />
<glyph unicode="&#xdc;" horiz-adv-x="616" d="M310 -14q-240 0 -240 226v427q0 17 12.5 29.5t29.5 12.5t29.5 -12.5t12.5 -29.5v-427q0 -148 156 -148q153 0 153 148v423q0 19 13 32.5t31 13.5q19 0 31.5 -13.5t12.5 -32.5v-423q0 -46 -11 -83.5t-36.5 -71t-74.5 -52.5t-119 -19zM230 740q-42 0 -42 44q0 46 42 46 q43 0 43 -46q0 -44 -43 -44zM398 740q-43 0 -43 44q0 46 43 46q42 0 42 -46q0 -44 -42 -44z" />
<glyph unicode="&#xdd;" horiz-adv-x="528" d="M306 310v-276q0 -17 -12.5 -29.5t-29.5 -12.5t-29.5 12.5t-12.5 29.5v276l-197 307q-6 11 -6 22q0 17 12.5 29.5t29.5 12.5q23 0 39 -25l164 -266l164 266q16 25 39 25q17 0 29.5 -12.5t12.5 -29.5q0 -11 -6 -22zM226 723q-21 18 -4 37l87 108q9 11 21.5 11t25.5 -12 q26 -27 4 -49l-98 -94q-18 -18 -36 -1z" />
<glyph unicode="&#xde;" horiz-adv-x="541" d="M308 149h-152v-115q0 -17 -12.5 -29.5t-29.5 -12.5t-29.5 12.5t-12.5 29.5v605q0 17 12.5 29.5t29.5 12.5t29.5 -12.5t12.5 -29.5v-89h152q87 0 140.5 -52t53.5 -148t-53.5 -148.5t-140.5 -52.5zM156 468v-237h142q55 0 86.5 31t31.5 88t-31.5 87.5t-86.5 30.5h-142z" />
<glyph unicode="&#xdf;" horiz-adv-x="558" d="M270 341q0 -26 26 -43t63.5 -28.5t75 -26t63.5 -44.5t26 -74q0 -67 -47 -102.5t-124 -35.5q-58 0 -104.5 22t-69.5 50q-9 13 -9 25q0 16 11 27t27 11q15 0 26 -10q54 -50 119 -50q93 0 93 60q0 27 -26 44.5t-63.5 29t-75 25.5t-63.5 44t-26 75q0 35 22.5 63t49 43.5 t49 40.5t22.5 54q0 26 -25.5 47t-72.5 21q-49 0 -73.5 -26t-24.5 -69v-483q0 -17 -11.5 -28t-27.5 -11t-27.5 11t-11.5 28v479q0 75 44 125t132 50q77 0 129 -42t52 -102q0 -33 -15 -59t-37 -42.5t-44 -31t-37 -31.5t-15 -36z" />
<glyph unicode="&#xe0;" horiz-adv-x="464" d="M208 57q52 0 90.5 31.5t38.5 82.5v39h-125q-101 0 -101 -75q0 -35 25 -56.5t72 -21.5zM230 468q89 0 137 -45t48 -125v-266q0 -17 -11.5 -28t-27.5 -11q-17 0 -28 11t-11 28v20q-38 -65 -139 -65q-76 0 -121 40t-45 108q0 65 47 102t123 37h135v22q0 44 -28 72t-79 28 q-37 0 -61.5 -11t-49.5 -36q-14 -14 -30 -14q-14 0 -24 9.5t-10 24.5t12 30q58 69 163 69zM297 517q-18 -17 -36 1l-98 94q-23 22 4 49q13 12 25.5 12t21.5 -11l87 -108q17 -19 -4 -37z" />
<glyph unicode="&#xe1;" horiz-adv-x="464" d="M208 57q52 0 90.5 31.5t38.5 82.5v39h-125q-101 0 -101 -75q0 -35 25 -56.5t72 -21.5zM230 468q89 0 137 -45t48 -125v-266q0 -17 -11.5 -28t-27.5 -11q-17 0 -28 11t-11 28v20q-38 -65 -139 -65q-76 0 -121 40t-45 108q0 65 47 102t123 37h135v22q0 44 -28 72t-79 28 q-37 0 -61.5 -11t-49.5 -36q-14 -14 -30 -14q-14 0 -24 9.5t-10 24.5t12 30q58 69 163 69zM171 517q-21 18 -4 37l87 108q9 11 21.5 11t25.5 -12q27 -27 4 -49l-98 -94q-18 -18 -36 -1z" />
<glyph unicode="&#xe2;" horiz-adv-x="464" d="M208 57q52 0 90.5 31.5t38.5 82.5v39h-125q-101 0 -101 -75q0 -35 25 -56.5t72 -21.5zM230 468q89 0 137 -45t48 -125v-266q0 -17 -11.5 -28t-27.5 -11q-17 0 -28 11t-11 28v20q-38 -65 -139 -65q-76 0 -121 40t-45 108q0 65 47 102t123 37h135v22q0 44 -28 72t-79 28 q-37 0 -61.5 -11t-49.5 -36q-14 -14 -30 -14q-14 0 -24 9.5t-10 24.5t12 30q58 69 163 69zM309 526l-76 58l-76 -58q-9 -7 -20 -7q-13 0 -22 9t-9 22q0 16 14 26l94 70q9 7 19 7t19 -7l94 -70q14 -10 14 -26q0 -13 -9 -22t-22 -9q-11 0 -20 7z" />
<glyph unicode="&#xe3;" horiz-adv-x="464" d="M208 57q52 0 90.5 31.5t38.5 82.5v39h-125q-101 0 -101 -75q0 -35 25 -56.5t72 -21.5zM230 468q89 0 137 -45t48 -125v-266q0 -17 -11.5 -28t-27.5 -11q-17 0 -28 11t-11 28v20q-38 -65 -139 -65q-76 0 -121 40t-45 108q0 65 47 102t123 37h135v22q0 44 -28 72t-79 28 q-37 0 -61.5 -11t-49.5 -36q-14 -14 -30 -14q-14 0 -24 9.5t-10 24.5t12 30q58 69 163 69zM295 588q20 0 38 22q10 14 25 14q13 0 22 -9t9 -22q0 -8 -3 -14q-24 -52 -87 -52q-28 0 -66.5 18t-55.5 18q-22 0 -38 -22q-10 -14 -26 -14q-12 0 -21 9.5t-9 22.5q0 8 3 14 q25 52 87 52q28 0 66 -18.5t56 -18.5z" />
<glyph unicode="&#xe4;" horiz-adv-x="463" d="M208 57q52 0 90.5 31.5t38.5 82.5v39h-125q-101 0 -101 -75q0 -35 25 -56.5t72 -21.5zM230 468q89 0 137 -45t48 -125v-266q0 -17 -11.5 -28t-27.5 -11q-17 0 -28 11t-11 28v20q-38 -65 -139 -65q-76 0 -121 40t-45 108q0 65 47 102t123 37h135v22q0 44 -28 72t-79 28 q-37 0 -61.5 -11t-49.5 -36q-14 -14 -30 -14q-14 0 -24 9.5t-10 24.5t12 30q58 69 163 69zM154 527q-42 0 -42 44q0 46 42 46q43 0 43 -46q0 -44 -43 -44zM322 527q-43 0 -43 44q0 46 43 46q42 0 42 -46q0 -44 -42 -44z" />
<glyph unicode="&#xe5;" horiz-adv-x="464" d="M208 57q52 0 90.5 31.5t38.5 82.5v39h-125q-101 0 -101 -75q0 -35 25 -56.5t72 -21.5zM230 468q89 0 137 -45t48 -125v-266q0 -17 -11.5 -28t-27.5 -11q-17 0 -28 11t-11 28v20q-38 -65 -139 -65q-76 0 -121 40t-45 108q0 65 47 102t123 37h135v22q0 44 -28 72t-79 28 q-37 0 -61.5 -11t-49.5 -36q-14 -14 -30 -14q-14 0 -24 9.5t-10 24.5t12 30q58 69 163 69zM235 545q56 0 56 55q0 54 -56 54t-56 -54q0 -55 56 -55zM235 698q52 0 78 -25.5t26 -72.5t-26.5 -73t-77.5 -26t-77.5 26t-26.5 73t26 72.5t78 25.5z" />
<glyph unicode="&#xe6;" horiz-adv-x="772" d="M208 57q52 0 90.5 31.5t38.5 82.5v39h-125q-101 0 -101 -75q0 -35 25 -56.5t72 -21.5zM555 -13q-136 0 -179 90q-52 -90 -176 -90q-76 0 -122 40t-46 108q0 65 47 102t123 37h135v22q0 44 -28 72t-79 28q-37 0 -61.5 -11t-49.5 -36q-14 -14 -30 -14q-14 0 -24 9.5 t-10 24.5t12 30q58 69 163 69q110 0 157 -69q54 69 158 69q58 0 99 -21.5t60 -56t27 -65.5t8 -61q0 -65 -54 -65h-267q0 -64 37 -99t100 -35q60 0 109 36q12 9 25 9q16 0 27 -11t11 -27t-13 -29q-60 -56 -159 -56zM545 396q-57 0 -89 -33.5t-37 -91.5h240q0 52 -27 88.5 t-87 36.5z" />
<glyph unicode="&#xe7;" horiz-adv-x="445" d="M351 -139q0 -91 -102 -91q-44 0 -71 20q-9 6 -9 18q0 9 6.5 15.5t14.5 6.5q6 0 12 -3q24 -12 49 -12q26 0 38.5 10t12.5 36q0 44 -48 44q-9 0 -23 -2.5t-20 -2.5q-19 0 -19 22l2 69q-160 29 -160 236q0 121 54.5 181t155.5 60q59 0 99.5 -22t59.5 -47q9 -13 9 -26 q0 -16 -11.5 -27t-26.5 -11q-16 0 -29 13q-48 48 -101 48q-130 0 -130 -169q0 -168 130 -168q10 0 20 1.5t17.5 3t16.5 5t13.5 6t12.5 7.5t11 7t10.5 7.5t8.5 6.5q11 8 23 8q15 0 26.5 -11t11.5 -27q0 -17 -15 -31q-67 -55 -156 -55h-10l-4 -43q16 2 31 2q43 0 66.5 -21.5 t23.5 -63.5z" />
<glyph unicode="&#xe8;" horiz-adv-x="468" d="M34 228q0 115 54 177.5t153 62.5q58 0 99 -21.5t60 -56t27 -65.5t8 -61q0 -65 -54 -65h-267q0 -64 37 -99t100 -35q60 0 109 36q12 9 25 9q16 0 27 -11t11 -27t-13 -29q-60 -56 -159 -56q-217 0 -217 241zM241 396q-57 0 -89 -33.5t-37 -91.5h240q0 52 -27 88.5t-87 36.5 zM308 517q-18 -17 -36 1l-98 94q-22 22 4 49q13 12 25.5 12t21.5 -11l87 -108q17 -19 -4 -37z" />
<glyph unicode="&#xe9;" horiz-adv-x="468" d="M34 228q0 115 54 177.5t153 62.5q58 0 99 -21.5t60 -56t27 -65.5t8 -61q0 -65 -54 -65h-267q0 -64 37 -99t100 -35q60 0 109 36q12 9 25 9q16 0 27 -11t11 -27t-13 -29q-60 -56 -159 -56q-217 0 -217 241zM241 396q-57 0 -89 -33.5t-37 -91.5h240q0 52 -27 88.5t-87 36.5 zM190 517q-21 18 -4 37l87 108q9 11 21.5 11t25.5 -12q26 -27 4 -49l-98 -94q-18 -18 -36 -1z" />
<glyph unicode="&#xea;" horiz-adv-x="468" d="M34 228q0 115 54 177.5t153 62.5q58 0 99 -21.5t60 -56t27 -65.5t8 -61q0 -65 -54 -65h-267q0 -64 37 -99t100 -35q60 0 109 36q12 9 25 9q16 0 27 -11t11 -27t-13 -29q-60 -56 -159 -56q-217 0 -217 241zM241 396q-57 0 -89 -33.5t-37 -91.5h240q0 52 -27 88.5t-87 36.5 zM321 526l-76 58l-76 -58q-9 -7 -20 -7q-13 0 -22 9t-9 22q0 16 14 26l94 70q9 7 19 7t19 -7l94 -70q14 -10 14 -26q0 -13 -9 -22t-22 -9q-11 0 -20 7z" />
<glyph unicode="&#xeb;" horiz-adv-x="468" d="M34 228q0 115 54 177.5t153 62.5q58 0 99 -21.5t60 -56t27 -65.5t8 -61q0 -65 -54 -65h-267q0 -64 37 -99t100 -35q60 0 109 36q12 9 25 9q16 0 27 -11t11 -27t-13 -29q-60 -56 -159 -56q-217 0 -217 241zM241 396q-57 0 -89 -33.5t-37 -91.5h240q0 52 -27 88.5t-87 36.5 zM161 527q-42 0 -42 44q0 46 42 46q43 0 43 -46q0 -44 -43 -44zM329 527q-43 0 -43 44q0 46 43 46q42 0 42 -46q0 -44 -42 -44z" />
<glyph unicode="&#xec;" horiz-adv-x="198" d="M148 517q-18 -17 -36 1l-98 94q-22 22 4 49q13 12 25.5 12t21.5 -11l87 -108q17 -19 -4 -37zM138 423v-392q0 -17 -11 -28t-28 -11t-28 11t-11 28v392q0 17 11 28t28 11t28 -11t11 -28z" />
<glyph unicode="&#xed;" horiz-adv-x="198" d="M54 517q-21 18 -4 37l87 108q9 11 21.5 11t25.5 -12q26 -27 4 -49l-98 -94q-18 -18 -36 -1zM138 423v-392q0 -17 -11 -28t-28 -11t-28 11t-11 28v392q0 17 11 28t28 11t28 -11t11 -28z" />
<glyph unicode="&#xee;" horiz-adv-x="198" d="M138 423v-392q0 -17 -11 -28t-28 -11t-28 11t-11 28v392q0 17 11 28t28 11t28 -11t11 -28zM176 526l-76 58l-76 -58q-9 -7 -20 -7q-13 0 -22 9t-9 22q0 16 14 26l94 70q9 7 19 7t19 -7l94 -70q14 -10 14 -26q0 -13 -9 -22t-22 -9q-11 0 -20 7z" />
<glyph unicode="&#xef;" horiz-adv-x="198" d="M15 527q-42 0 -42 44q0 46 42 46q43 0 43 -46q0 -44 -43 -44zM183 527q-43 0 -43 44q0 46 43 46q42 0 42 -46q0 -44 -42 -44zM138 423v-392q0 -17 -11 -28t-28 -11t-28 11t-11 28v392q0 17 11 28t28 11t28 -11t11 -28z" />
<glyph unicode="&#xf0;" horiz-adv-x="492" d="M246 468q60 0 106 -26q-16 58 -56 105q-4 -3 -13.5 -10t-15.5 -10.5t-14.5 -8.5t-15 -7.5t-11.5 -2.5q-16 0 -26.5 11t-10.5 27q0 20 16 31l38 24q-19 16 -73 46q-19 10 -19 30q0 14 10 24.5t24 10.5q37 0 120 -70l40 26q7 5 19 5q16 0 26.5 -11t10.5 -27q0 -20 -16 -31 l-30 -18q99 -126 100 -359q0 -120 -54 -180t-155 -60t-156.5 60t-55.5 180t55.5 180.5t156.5 60.5zM375 227q0 169 -131 169q-130 0 -130 -169q0 -168 130 -168q131 0 131 168z" />
<glyph unicode="&#xf1;" horiz-adv-x="492" d="M138 423v-20q16 27 50.5 46t80.5 19q52 0 88 -15t53 -41.5t24 -55t7 -64.5v-261q0 -17 -11.5 -28t-27.5 -11t-27.5 11t-11.5 28v247q0 56 -24 86.5t-82 30.5q-61 0 -90 -31.5t-29 -82.5v-250q0 -17 -11 -28t-28 -11t-28 11t-11 28v392q0 17 11 28t28 11t28 -11t11 -28z M315 588q20 0 38 22q10 14 25 14q13 0 22 -9t9 -22q0 -8 -3 -14q-24 -52 -87 -52q-28 0 -66.5 18t-55.5 18q-22 0 -38 -22q-10 -14 -26 -14q-12 0 -21 9.5t-9 22.5q0 8 3 14q25 52 87 52q28 0 66 -18.5t56 -18.5z" />
<glyph unicode="&#xf2;" d="M455 227q0 -120 -55 -180t-156 -60q-100 0 -155 60t-55 180q0 121 54.5 181t155.5 60t156 -60t55 -181zM375 227q0 169 -131 169q-130 0 -130 -169q0 -168 130 -168q131 0 131 168zM305 517q-18 -17 -36 1l-98 94q-23 22 4 49q13 12 25.5 12t21.5 -11l87 -108 q17 -19 -4 -37z" />
<glyph unicode="&#xf3;" d="M455 227q0 -120 -55 -180t-156 -60q-100 0 -155 60t-55 180q0 121 54.5 181t155.5 60t156 -60t55 -181zM375 227q0 169 -131 169q-130 0 -130 -169q0 -168 130 -168q131 0 131 168zM200 517q-21 18 -4 37l87 108q9 11 21.5 11t25.5 -12q26 -27 4 -49l-98 -94 q-18 -18 -36 -1z" />
<glyph unicode="&#xf4;" d="M455 227q0 -120 -55 -180t-156 -60q-100 0 -155 60t-55 180q0 121 54.5 181t155.5 60t156 -60t55 -181zM375 227q0 169 -131 169q-130 0 -130 -169q0 -168 130 -168q131 0 131 168zM325 526l-76 58l-76 -58q-9 -7 -20 -7q-13 0 -22 9t-9 22q0 16 14 26l94 70q9 7 19 7 t19 -7l94 -70q14 -10 14 -26q0 -13 -9 -22t-22 -9q-11 0 -20 7z" />
<glyph unicode="&#xf5;" d="M455 227q0 -120 -55 -180t-156 -60q-100 0 -155 60t-55 180q0 121 54.5 181t155.5 60t156 -60t55 -181zM375 227q0 169 -131 169q-130 0 -130 -169q0 -168 130 -168q131 0 131 168zM307 588q20 0 38 22q10 14 25 14q13 0 22 -9t9 -22q0 -8 -3 -14q-24 -52 -87 -52 q-28 0 -66.5 18t-55.5 18q-22 0 -38 -22q-10 -14 -26 -14q-12 0 -21 9.5t-9 22.5q0 8 3 14q25 52 87 52q28 0 66 -18.5t56 -18.5z" />
<glyph unicode="&#xf6;" d="M455 227q0 -120 -55 -180t-156 -60q-100 0 -155 60t-55 180q0 121 54.5 181t155.5 60t156 -60t55 -181zM375 227q0 169 -131 169q-130 0 -130 -169q0 -168 130 -168q131 0 131 168zM165 527q-42 0 -42 44q0 46 42 46q43 0 43 -46q0 -44 -43 -44zM333 527q-43 0 -43 44 q0 46 43 46q42 0 42 -46q0 -44 -42 -44z" />
<glyph unicode="&#xf7;" horiz-adv-x="454" d="M184 90q0 18 12.5 30.5t30.5 12.5t30.5 -12.5t12.5 -30.5t-12.5 -30.5t-30.5 -12.5t-30.5 12.5t-12.5 30.5zM184 347q0 19 12.5 31.5t30.5 12.5t30.5 -12.5t12.5 -31.5t-12.5 -31t-30.5 -12t-30.5 12t-12.5 31zM454 219q0 -15 -10.5 -26t-24.5 -11h-384q-14 0 -24.5 11 t-10.5 26t10.5 25.5t24.5 10.5h384q14 0 24.5 -10.5t10.5 -25.5z" />
<glyph unicode="&#xf8;" d="M455 227q0 -120 -55 -180t-156 -60q-89 0 -141 46l-30 -32q-9 -9 -23 -9q-13 0 -22 9.5t-9 23.5t9 23l35 37q-29 55 -29 142q0 121 54.5 181t155.5 60q86 0 139 -45l33 35q10 10 23 10t22.5 -9.5t9.5 -23.5t-9 -23l-38 -40q31 -57 31 -145zM375 227q0 46 -11 82 l-207 -220q31 -30 87 -30q131 0 131 168zM114 227q0 -45 9 -78l207 218q-34 29 -86 29q-130 0 -130 -169z" />
<glyph unicode="&#xf9;" horiz-adv-x="480" d="M240 -13q-57 0 -95.5 14.5t-58 42t-27.5 58t-8 70.5v251q0 17 11.5 28t27.5 11t27.5 -11t11.5 -28v-251q0 -111 111 -111t111 111v251q0 17 11.5 28t27.5 11t27.5 -11t11.5 -28v-251q0 -40 -8 -70.5t-27.5 -58t-58 -42t-95.5 -14.5zM298 517q-18 -17 -36 1l-98 94 q-22 22 4 49q13 12 25.5 12t21.5 -11l87 -108q17 -19 -4 -37z" />
<glyph unicode="&#xfa;" horiz-adv-x="480" d="M240 -13q-57 0 -95.5 14.5t-58 42t-27.5 58t-8 70.5v251q0 17 11.5 28t27.5 11t27.5 -11t11.5 -28v-251q0 -111 111 -111t111 111v251q0 17 11.5 28t27.5 11t27.5 -11t11.5 -28v-251q0 -40 -8 -70.5t-27.5 -58t-58 -42t-95.5 -14.5zM194 517q-21 18 -4 37l87 108 q9 11 21.5 11t25.5 -12q26 -27 4 -49l-98 -94q-18 -18 -36 -1z" />
<glyph unicode="&#xfb;" horiz-adv-x="480" d="M240 -13q-57 0 -95.5 14.5t-58 42t-27.5 58t-8 70.5v251q0 17 11.5 28t27.5 11t27.5 -11t11.5 -28v-251q0 -111 111 -111t111 111v251q0 17 11.5 28t27.5 11t27.5 -11t11.5 -28v-251q0 -40 -8 -70.5t-27.5 -58t-58 -42t-95.5 -14.5zM321 526l-76 58l-76 -58q-9 -7 -20 -7 q-13 0 -22 9t-9 22q0 16 14 26l94 70q9 7 19 7t19 -7l94 -70q14 -10 14 -26q0 -13 -9 -22t-22 -9q-11 0 -20 7z" />
<glyph unicode="&#xfc;" horiz-adv-x="480" d="M240 -13q-57 0 -95.5 14.5t-58 42t-27.5 58t-8 70.5v251q0 17 11.5 28t27.5 11t27.5 -11t11.5 -28v-251q0 -111 111 -111t111 111v251q0 17 11.5 28t27.5 11t27.5 -11t11.5 -28v-251q0 -40 -8 -70.5t-27.5 -58t-58 -42t-95.5 -14.5zM163 527q-42 0 -42 44q0 46 42 46 q43 0 43 -46q0 -44 -43 -44zM331 527q-43 0 -43 44q0 46 43 46q42 0 42 -46q0 -44 -42 -44z" />
<glyph unicode="&#xfd;" horiz-adv-x="437" d="M38 -123q53 0 80.5 33.5t60.5 114.5l-161 380q-4 8 -4 18q0 17 11 28t28 11q26 0 38 -28l128 -316l128 316q12 28 38 28q17 0 28 -11t11 -28q0 -10 -4 -18l-191 -448q-34 -79 -78 -118.5t-113 -39.5q-16 0 -27.5 11.5t-11.5 27.5t11.5 27.5t27.5 11.5zM182 517 q-21 18 -4 37l87 108q9 11 21.5 11t25.5 -12q26 -27 4 -49l-98 -94q-18 -18 -36 -1z" />
<glyph unicode="&#xfe;" horiz-adv-x="503" d="M138 673v-263q47 58 128 58q203 0 203 -240q0 -241 -203 -241q-43 0 -76.5 16t-51.5 40v-205q0 -16 -11 -27.5t-28 -11.5t-28 11.5t-11 27.5v835q0 17 11 28t28 11t28 -11t11 -28zM135 227q0 -82 34 -125t91 -43q63 0 96 42.5t33 125.5t-33.5 126t-96.5 43q-56 0 -90 -43 t-34 -126z" />
<glyph unicode="&#xff;" horiz-adv-x="437" d="M38 -123q53 0 80.5 33.5t60.5 114.5l-161 380q-4 8 -4 18q0 17 11 28t28 11q26 0 38 -28l128 -316l128 316q12 28 38 28q17 0 28 -11t11 -28q0 -10 -4 -18l-191 -448q-34 -79 -78 -118.5t-113 -39.5q-16 0 -27.5 11.5t-11.5 27.5t11.5 27.5t27.5 11.5zM136 527 q-42 0 -42 44q0 46 42 46q43 0 43 -46q0 -44 -43 -44zM304 527q-43 0 -43 44q0 46 43 46q42 0 42 -46q0 -44 -42 -44z" />
<glyph unicode="&#x100;" horiz-adv-x="618" d="M417 269l-108 281l-108 -281h216zM444 189h-270l-69 -170q-11 -27 -39 -27q-17 0 -29.5 12.5t-12.5 29.5q0 8 3 15l243 605q10 27 39 27t39 -27l243 -605q3 -7 3 -15q0 -17 -12.5 -29.5t-29.5 -12.5q-28 0 -39 27zM430 764q0 -13 -9 -22.5t-22 -9.5h-180q-13 0 -22 9.5 t-9 22.5t9 22t22 9h180q13 0 22 -9t9 -22z" />
<glyph unicode="&#x101;" horiz-adv-x="464" d="M208 57q52 0 90.5 31.5t38.5 82.5v39h-125q-101 0 -101 -75q0 -35 25 -56.5t72 -21.5zM230 468q89 0 137 -45t48 -125v-266q0 -17 -11.5 -28t-27.5 -11q-17 0 -28 11t-11 28v20q-38 -65 -139 -65q-76 0 -121 40t-45 108q0 65 47 102t123 37h135v22q0 44 -28 72t-79 28 q-37 0 -61.5 -11t-49.5 -36q-14 -14 -30 -14q-14 0 -24 9.5t-10 24.5t12 30q58 69 163 69zM350 562q0 -13 -9 -22.5t-22 -9.5h-180q-13 0 -22 9.5t-9 22.5t9 22t22 9h180q13 0 22 -9t9 -22z" />
<glyph unicode="&#x102;" horiz-adv-x="618" d="M417 269l-108 281l-108 -281h216zM444 189h-270l-69 -170q-11 -27 -39 -27q-17 0 -29.5 12.5t-12.5 29.5q0 8 3 15l243 605q10 27 39 27t39 -27l243 -605q3 -7 3 -15q0 -17 -12.5 -29.5t-29.5 -12.5q-28 0 -39 27zM310 729q-55 0 -89.5 25.5t-34.5 78.5q0 12 8.5 21 t20.5 9t20.5 -9t8.5 -21q0 -47 66 -47q65 0 65 47q0 12 8.5 21t20.5 9t20.5 -9t8.5 -21q0 -53 -34.5 -78.5t-88.5 -25.5z" />
<glyph unicode="&#x103;" horiz-adv-x="464" d="M208 57q52 0 90.5 31.5t38.5 82.5v39h-125q-101 0 -101 -75q0 -35 25 -56.5t72 -21.5zM230 468q89 0 137 -45t48 -125v-266q0 -17 -11.5 -28t-27.5 -11q-17 0 -28 11t-11 28v20q-38 -65 -139 -65q-76 0 -121 40t-45 108q0 65 47 102t123 37h135v22q0 44 -28 72t-79 28 q-37 0 -61.5 -11t-49.5 -36q-14 -14 -30 -14q-14 0 -24 9.5t-10 24.5t12 30q58 69 163 69zM232 526q-55 0 -89.5 25.5t-34.5 78.5q0 12 8.5 21t20.5 9t20.5 -9t8.5 -21q0 -47 66 -47q65 0 65 47q0 12 8.5 21t20.5 9t20.5 -9t8.5 -21q0 -53 -34.5 -78.5t-88.5 -25.5z" />
<glyph unicode="&#x104;" horiz-adv-x="618" d="M626 -122q11 0 18 -7.5t7 -18.5q0 -37 -83 -37q-48 0 -78.5 21.5t-30.5 64.5q0 32 18.5 58.5t49.5 40.5q-9 6 -14 19l-69 170h-270l-69 -170q-11 -27 -39 -27q-17 0 -29.5 12.5t-12.5 29.5q0 8 3 15l243 605q10 27 39 27t39 -27l243 -605q3 -7 3 -15q0 -24 -25 -38 q-54 -31 -54 -78q0 -49 58 -49h10q9 1 23 5t20 4zM417 269l-108 281l-108 -281h216z" />
<glyph unicode="&#x105;" horiz-adv-x="464" d="M447 -122q11 0 18 -7.5t7 -18.5q0 -37 -83 -37q-48 0 -78.5 21.5t-30.5 64.5q0 32 20.5 58.5t52.5 40.5q-16 11 -16 32v20q-38 -65 -139 -65q-76 0 -121 40t-45 108q0 65 47 102t123 37h135v22q0 44 -28 72t-79 28q-37 0 -61.5 -11t-49.5 -36q-14 -14 -30 -14 q-14 0 -24 9.5t-10 24.5t12 30q58 69 163 69q89 0 137 -45t48 -125v-266q0 -24 -24 -37q-55 -30 -55 -77q0 -49 58 -49h10q9 1 23 5t20 4zM208 57q52 0 90.5 31.5t38.5 82.5v39h-125q-101 0 -101 -75q0 -35 25 -56.5t72 -21.5z" />
<glyph unicode="&#x106;" horiz-adv-x="635" d="M351 -14q-312 0 -312 350q0 175 81 263t231 88q77 0 137 -29t95 -78q9 -14 9 -27q0 -17 -12 -29t-29 -12q-20 0 -34 17q-64 80 -166 80q-226 0 -226 -273q0 -142 56 -207t170 -65q103 0 172 75q14 15 31 15t29 -12t12 -29q0 -13 -8 -24q-34 -48 -97.5 -75.5t-138.5 -27.5 zM292 723q-21 18 -4 37l87 108q9 11 21.5 11t25.5 -12q26 -27 4 -49l-98 -94q-18 -18 -36 -1z" />
<glyph unicode="&#x107;" horiz-adv-x="445" d="M34 227q0 121 54.5 181t155.5 60q59 0 99.5 -22t59.5 -47q9 -13 9 -26q0 -16 -11.5 -27t-26.5 -11q-16 0 -29 13q-48 48 -101 48q-130 0 -130 -169q0 -168 130 -168q10 0 20 1.5t17.5 3t16.5 5t13.5 6t12.5 7.5t11 7t10.5 7.5t8.5 6.5q11 8 23 8q15 0 26.5 -11t11.5 -27 q0 -17 -15 -31q-67 -55 -156 -55q-100 0 -155 60t-55 180zM187 517q-21 18 -4 37l87 108q9 11 21.5 11t25.5 -12q27 -27 4 -49l-98 -94q-18 -18 -36 -1z" />
<glyph unicode="&#x108;" horiz-adv-x="635" d="M351 -14q-312 0 -312 350q0 175 81 263t231 88q77 0 137 -29t95 -78q9 -14 9 -27q0 -17 -12 -29t-29 -12q-20 0 -34 17q-64 80 -166 80q-226 0 -226 -273q0 -142 56 -207t170 -65q103 0 172 75q14 15 31 15t29 -12t12 -29q0 -13 -8 -24q-34 -48 -97.5 -75.5t-138.5 -27.5 zM432 724l-76 58l-76 -58q-9 -7 -20 -7q-13 0 -22 9t-9 22q0 16 14 26l94 70q9 7 19 7t19 -7l94 -70q14 -10 14 -26q0 -13 -9 -22t-22 -9q-11 0 -20 7z" />
<glyph unicode="&#x109;" horiz-adv-x="445" d="M34 227q0 121 54.5 181t155.5 60q59 0 99.5 -22t59.5 -47q9 -13 9 -26q0 -16 -11.5 -27t-26.5 -11q-16 0 -29 13q-48 48 -101 48q-130 0 -130 -169q0 -168 130 -168q10 0 20 1.5t17.5 3t16.5 5t13.5 6t12.5 7.5t11 7t10.5 7.5t8.5 6.5q11 8 23 8q15 0 26.5 -11t11.5 -27 q0 -17 -15 -31q-67 -55 -156 -55q-100 0 -155 60t-55 180zM319 526l-76 58l-76 -58q-9 -7 -20 -7q-13 0 -22 9t-9 22q0 16 14 26l94 70q9 7 19 7t19 -7l94 -70q14 -10 14 -26q0 -13 -9 -22t-22 -9q-11 0 -20 7z" />
<glyph unicode="&#x10a;" horiz-adv-x="635" d="M351 -14q-312 0 -312 350q0 175 81 263t231 88q77 0 137 -29t95 -78q9 -14 9 -27q0 -17 -12 -29t-29 -12q-20 0 -34 17q-64 80 -166 80q-226 0 -226 -273q0 -142 56 -207t170 -65q103 0 172 75q14 15 31 15t29 -12t12 -29q0 -13 -8 -24q-34 -48 -97.5 -75.5t-138.5 -27.5 zM353 732q-45 0 -45 45q0 47 45 47q44 0 44 -47q0 -45 -44 -45z" />
<glyph unicode="&#x10b;" horiz-adv-x="445" d="M34 227q0 121 54.5 181t155.5 60q59 0 99.5 -22t59.5 -47q9 -13 9 -26q0 -16 -11.5 -27t-26.5 -11q-16 0 -29 13q-48 48 -101 48q-130 0 -130 -169q0 -168 130 -168q10 0 20 1.5t17.5 3t16.5 5t13.5 6t12.5 7.5t11 7t10.5 7.5t8.5 6.5q11 8 23 8q15 0 26.5 -11t11.5 -27 q0 -17 -15 -31q-67 -55 -156 -55q-100 0 -155 60t-55 180zM245 540q-45 0 -45 45q0 47 45 47q44 0 44 -47q0 -45 -44 -45z" />
<glyph unicode="&#x10c;" horiz-adv-x="635" d="M351 -14q-312 0 -312 350q0 175 81 263t231 88q77 0 137 -29t95 -78q9 -14 9 -27q0 -17 -12 -29t-29 -12q-20 0 -34 17q-64 80 -166 80q-226 0 -226 -273q0 -142 56 -207t170 -65q103 0 172 75q14 15 31 15t29 -12t12 -29q0 -13 -8 -24q-34 -48 -97.5 -75.5t-138.5 -27.5 zM350 785l76 58q9 7 20 7q13 0 22 -9t9 -22q0 -16 -14 -26l-94 -70q-9 -7 -19 -7t-19 7l-94 70q-14 10 -14 26q0 13 9 22t22 9q11 0 20 -7z" />
<glyph unicode="&#x10d;" horiz-adv-x="445" d="M34 227q0 121 54.5 181t155.5 60q59 0 99.5 -22t59.5 -47q9 -13 9 -26q0 -16 -11.5 -27t-26.5 -11q-16 0 -29 13q-48 48 -101 48q-130 0 -130 -169q0 -168 130 -168q10 0 20 1.5t17.5 3t16.5 5t13.5 6t12.5 7.5t11 7t10.5 7.5t8.5 6.5q11 8 23 8q15 0 26.5 -11t11.5 -27 q0 -17 -15 -31q-67 -55 -156 -55q-100 0 -155 60t-55 180zM238 576l76 58q9 7 20 7q13 0 22 -9t9 -22q0 -16 -14 -26l-94 -70q-9 -7 -19 -7t-19 7l-94 70q-14 10 -14 26q0 13 9 22t22 9q11 0 20 -7z" />
<glyph unicode="&#x10e;" horiz-adv-x="600" d="M156 591v-509h94q111 0 168 58.5t57 195.5t-57 196t-168 59h-94zM114 673h136q153 0 232 -79t79 -258t-79 -257.5t-232 -78.5h-136q-17 0 -29.5 12.5t-12.5 29.5v589q0 17 12.5 29.5t29.5 12.5zM278 785l76 58q9 7 20 7q13 0 22 -9t9 -22q0 -16 -14 -26l-94 -70 q-9 -7 -19 -7t-19 7l-94 70q-14 10 -14 26q0 13 9 22t22 9q11 0 20 -7z" />
<glyph unicode="&#x10f;" horiz-adv-x="565" d="M357 182v144l-5 7.5t-14 16.5t-23.5 21.5t-33 17t-42.5 7.5q-62 0 -94.5 -43t-32.5 -126q0 -168 127 -168q54 0 86 31.5t32 91.5zM232 468q40 0 73.5 -15.5t51.5 -37.5v258q0 17 11.5 28t27.5 11t27.5 -11t11.5 -28v-488q0 -97 -53 -147.5t-143 -50.5q-100 0 -153.5 60.5 t-53.5 179.5q0 120 51.5 180.5t148.5 60.5zM535 711q56 0 56 -65q0 -61 -24 -116t-62 -85q-7 -6 -15 -6q-7 0 -12.5 5t-5.5 13q0 7 5 13q21 28 30 47t9 45q0 19 -18 45.5t-18 46.5q0 57 55 57z" />
<glyph unicode="&#x110;" horiz-adv-x="610" d="M124 673h136q153 0 232 -79t79 -258t-79 -257.5t-232 -78.5h-136q-17 0 -29.5 12.5t-12.5 29.5v267h-27q-15 0 -26 11.5t-11 27.5t11 27t26 11h27v245q0 17 12.5 29.5t29.5 12.5zM166 591v-205h175q16 0 27 -11t11 -27t-11 -27.5t-27 -11.5h-175v-227h94q111 0 168 58.5 t57 195.5t-57 196t-168 59h-94z" />
<glyph unicode="&#x111;" horiz-adv-x="491" d="M232 468q40 0 73.5 -15.5t51.5 -37.5v110h-85q-14 0 -24 10t-10 25t10 25.5t24 10.5h85v77q0 17 11.5 28t27.5 11t27.5 -11t11.5 -28v-77h23q14 0 24 -10.5t10 -25.5t-10 -25t-24 -10h-23v-340q0 -97 -53 -147.5t-143 -50.5q-100 0 -153.5 60.5t-53.5 179.5 q0 120 51.5 180.5t148.5 60.5zM357 182v144l-5 7.5t-14 16.5t-23.5 21.5t-33 17t-42.5 7.5q-62 0 -94.5 -43t-32.5 -126q0 -168 127 -168q54 0 86 31.5t32 91.5z" />
<glyph unicode="&#x112;" horiz-adv-x="520" d="M439 0h-325q-17 0 -29.5 12.5t-12.5 29.5v589q0 17 12.5 29.5t29.5 12.5h314q17 0 29 -12t12 -29t-12 -29t-29 -12h-272v-212h207q17 0 28.5 -11.5t11.5 -28.5t-11.5 -28.5t-28.5 -11.5h-207v-217h283q17 0 29 -12t12 -29t-12 -29t-29 -12zM400 764q0 -13 -9 -22.5 t-22 -9.5h-180q-13 0 -22 9.5t-9 22.5t9 22t22 9h180q13 0 22 -9t9 -22z" />
<glyph unicode="&#x113;" horiz-adv-x="468" d="M34 228q0 115 54 177.5t153 62.5q58 0 99 -21.5t60 -56t27 -65.5t8 -61q0 -65 -54 -65h-267q0 -64 37 -99t100 -35q60 0 109 36q12 9 25 9q16 0 27 -11t11 -27t-13 -29q-60 -56 -159 -56q-217 0 -217 241zM241 396q-57 0 -89 -33.5t-37 -91.5h240q0 52 -27 88.5t-87 36.5 zM365 562q0 -13 -9 -22.5t-22 -9.5h-180q-13 0 -22 9.5t-9 22.5t9 22t22 9h180q13 0 22 -9t9 -22z" />
<glyph unicode="&#x114;" horiz-adv-x="520" d="M439 0h-325q-17 0 -29.5 12.5t-12.5 29.5v589q0 17 12.5 29.5t29.5 12.5h314q17 0 29 -12t12 -29t-12 -29t-29 -12h-272v-212h207q17 0 28.5 -11.5t11.5 -28.5t-11.5 -28.5t-28.5 -11.5h-207v-217h283q17 0 29 -12t12 -29t-12 -29t-29 -12zM279 729q-55 0 -89.5 25.5 t-34.5 78.5q0 12 8.5 21t20.5 9t20.5 -9t8.5 -21q0 -47 66 -47q65 0 65 47q0 12 8.5 21t20.5 9t20.5 -9t8.5 -21q0 -53 -34.5 -78.5t-88.5 -25.5z" />
<glyph unicode="&#x115;" horiz-adv-x="468" d="M34 228q0 115 54 177.5t153 62.5q58 0 99 -21.5t60 -56t27 -65.5t8 -61q0 -65 -54 -65h-267q0 -64 37 -99t100 -35q60 0 109 36q12 9 25 9q16 0 27 -11t11 -27t-13 -29q-60 -56 -159 -56q-217 0 -217 241zM241 396q-57 0 -89 -33.5t-37 -91.5h240q0 52 -27 88.5t-87 36.5 zM246 526q-55 0 -89.5 25.5t-34.5 78.5q0 12 8.5 21t20.5 9t20.5 -9t8.5 -21q0 -47 66 -47q65 0 65 47q0 12 8.5 21t20.5 9t20.5 -9t8.5 -21q0 -53 -34.5 -78.5t-88.5 -25.5z" />
<glyph unicode="&#x116;" horiz-adv-x="520" d="M439 0h-325q-17 0 -29.5 12.5t-12.5 29.5v589q0 17 12.5 29.5t29.5 12.5h314q17 0 29 -12t12 -29t-12 -29t-29 -12h-272v-212h207q17 0 28.5 -11.5t11.5 -28.5t-11.5 -28.5t-28.5 -11.5h-207v-217h283q17 0 29 -12t12 -29t-12 -29t-29 -12zM281 732q-45 0 -45 45 q0 47 45 47q44 0 44 -47q0 -45 -44 -45z" />
<glyph unicode="&#x117;" horiz-adv-x="468" d="M34 228q0 115 54 177.5t153 62.5q58 0 99 -21.5t60 -56t27 -65.5t8 -61q0 -65 -54 -65h-267q0 -64 37 -99t100 -35q60 0 109 36q12 9 25 9q16 0 27 -11t11 -27t-13 -29q-60 -56 -159 -56q-217 0 -217 241zM241 396q-57 0 -89 -33.5t-37 -91.5h240q0 52 -27 88.5t-87 36.5 zM245 540q-45 0 -45 45q0 47 45 47q44 0 44 -47q0 -45 -44 -45z" />
<glyph unicode="&#x118;" horiz-adv-x="520" d="M494 -122q11 0 18 -7.5t7 -18.5q0 -37 -83 -37q-48 0 -78.5 21.5t-30.5 64.5q0 30 17 57.5t44 41.5h-274q-17 0 -29.5 12.5t-12.5 29.5v589q0 17 12.5 29.5t29.5 12.5h314q17 0 29 -12t12 -29t-12 -29t-29 -12h-272v-212h207q17 0 28.5 -11.5t11.5 -28.5t-11.5 -28.5 t-28.5 -11.5h-207v-217h283q17 0 29 -12t12 -29q0 -24 -23 -37q-74 -41 -74 -86q0 -49 58 -49h10q9 1 23 5t20 4z" />
<glyph unicode="&#x119;" horiz-adv-x="468" d="M385 -122q11 0 18 -7.5t7 -18.5q0 -37 -83 -37q-48 0 -78.5 21.5t-30.5 64.5q0 53 47 87q-6 -1 -14 -1q-217 0 -217 241q0 115 54 177.5t153 62.5q58 0 99 -21.5t60 -56t27 -65.5t8 -61q0 -65 -54 -65h-267q0 -64 37 -99t100 -35q60 0 109 36q12 9 25 9q16 0 27 -11 t11 -27t-13 -29q-12 -12 -49.5 -32t-62 -42t-24.5 -51q0 -49 58 -49h10q9 1 23 5t20 4zM241 396q-57 0 -89 -33.5t-37 -91.5h240q0 52 -27 88.5t-87 36.5z" />
<glyph unicode="&#x11a;" horiz-adv-x="520" d="M439 0h-325q-17 0 -29.5 12.5t-12.5 29.5v589q0 17 12.5 29.5t29.5 12.5h314q17 0 29 -12t12 -29t-12 -29t-29 -12h-272v-212h207q17 0 28.5 -11.5t11.5 -28.5t-11.5 -28.5t-28.5 -11.5h-207v-217h283q17 0 29 -12t12 -29t-12 -29t-29 -12zM286 785l76 58q9 7 20 7 q13 0 22 -9t9 -22q0 -16 -14 -26l-94 -70q-9 -7 -19 -7t-19 7l-94 70q-14 10 -14 26q0 13 9 22t22 9q11 0 20 -7z" />
<glyph unicode="&#x11b;" horiz-adv-x="468" d="M34 228q0 115 54 177.5t153 62.5q58 0 99 -21.5t60 -56t27 -65.5t8 -61q0 -65 -54 -65h-267q0 -64 37 -99t100 -35q60 0 109 36q12 9 25 9q16 0 27 -11t11 -27t-13 -29q-60 -56 -159 -56q-217 0 -217 241zM241 396q-57 0 -89 -33.5t-37 -91.5h240q0 52 -27 88.5t-87 36.5 zM245 576l76 58q9 7 20 7q13 0 22 -9t9 -22q0 -16 -14 -26l-94 -70q-9 -7 -19 -7t-19 7l-94 70q-14 10 -14 26q0 13 9 22t22 9q11 0 20 -7z" />
<glyph unicode="&#x11c;" horiz-adv-x="668" d="M351 -14q-312 0 -312 350q0 175 81 263t231 88q77 0 137 -29t95 -78q9 -14 9 -27q0 -17 -12 -29t-29 -12q-20 0 -34 17q-64 80 -166 80q-226 0 -226 -273q0 -142 56 -207t170 -65q110 0 178 74v130h-153q-16 0 -28 12t-12 28t12 28t28 12h195q17 0 28.5 -12t11.5 -28 v-169q0 -27 -14 -43q-91 -110 -246 -110zM423 724l-76 58l-76 -58q-9 -7 -20 -7q-13 0 -22 9t-9 22q0 16 14 26l94 70q9 7 19 7t19 -7l94 -70q14 -10 14 -26q0 -13 -9 -22t-22 -9q-11 0 -20 7z" />
<glyph unicode="&#x11d;" horiz-adv-x="486" d="M421 298q0 -78 -50 -123.5t-139 -45.5q-60 0 -102 20q-14 -11 -14 -28q0 -38 67 -38h99q80 0 129.5 -33.5t49.5 -103.5q0 -74 -59.5 -110.5t-158.5 -36.5q-92 0 -153.5 33t-61.5 111q0 31 19 58t54 41q-59 19 -59 79q0 44 38 68q-35 46 -35 109q0 79 49.5 124.5 t137.5 45.5q59 0 103 -22q30 51 93 51q15 0 25.5 -10.5t10.5 -25.5t-10.5 -25.5t-25.5 -10.5q-29 0 -42 -21q35 -45 35 -106zM124 298q0 -43 28 -70.5t80 -27.5t80 27.5t28 70.5q0 44 -28 71.5t-80 27.5t-80 -27.5t-28 -71.5zM382 -54q0 32 -27.5 49t-72.5 17h-103 q-35 -6 -54 -25.5t-19 -43.5q0 -36 38.5 -54t99.5 -18q58 0 98 19t40 56zM308 526l-76 58l-76 -58q-9 -7 -20 -7q-13 0 -22 9t-9 22q0 16 14 26l94 70q9 7 19 7t19 -7l94 -70q14 -10 14 -26q0 -13 -9 -22t-22 -9q-11 0 -20 7z" />
<glyph unicode="&#x11e;" horiz-adv-x="668" d="M351 -14q-312 0 -312 350q0 175 81 263t231 88q77 0 137 -29t95 -78q9 -14 9 -27q0 -17 -12 -29t-29 -12q-20 0 -34 17q-64 80 -166 80q-226 0 -226 -273q0 -142 56 -207t170 -65q110 0 178 74v130h-153q-16 0 -28 12t-12 28t12 28t28 12h195q17 0 28.5 -12t11.5 -28 v-169q0 -27 -14 -43q-91 -110 -246 -110zM350 736q-55 0 -89.5 25.5t-34.5 78.5q0 12 8.5 21t20.5 9t20.5 -9t8.5 -21q0 -47 66 -47q65 0 65 47q0 12 8.5 21t20.5 9t20.5 -9t8.5 -21q0 -53 -34.5 -78.5t-88.5 -25.5z" />
<glyph unicode="&#x11f;" horiz-adv-x="486" d="M421 298q0 -78 -50 -123.5t-139 -45.5q-60 0 -102 20q-14 -11 -14 -28q0 -38 67 -38h99q80 0 129.5 -33.5t49.5 -103.5q0 -74 -59.5 -110.5t-158.5 -36.5q-92 0 -153.5 33t-61.5 111q0 31 19 58t54 41q-59 19 -59 79q0 44 38 68q-35 46 -35 109q0 79 49.5 124.5 t137.5 45.5q59 0 103 -22q30 51 93 51q15 0 25.5 -10.5t10.5 -25.5t-10.5 -25.5t-25.5 -10.5q-29 0 -42 -21q35 -45 35 -106zM124 298q0 -43 28 -70.5t80 -27.5t80 27.5t28 70.5q0 44 -28 71.5t-80 27.5t-80 -27.5t-28 -71.5zM382 -54q0 32 -27.5 49t-72.5 17h-103 q-35 -6 -54 -25.5t-19 -43.5q0 -36 38.5 -54t99.5 -18q58 0 98 19t40 56zM233 526q-55 0 -89.5 25.5t-34.5 78.5q0 12 8.5 21t20.5 9t20.5 -9t8.5 -21q0 -47 66 -47q65 0 65 47q0 12 8.5 21t20.5 9t20.5 -9t8.5 -21q0 -53 -34.5 -78.5t-88.5 -25.5z" />
<glyph unicode="&#x120;" horiz-adv-x="668" d="M351 -14q-312 0 -312 350q0 175 81 263t231 88q77 0 137 -29t95 -78q9 -14 9 -27q0 -17 -12 -29t-29 -12q-20 0 -34 17q-64 80 -166 80q-226 0 -226 -273q0 -142 56 -207t170 -65q110 0 178 74v130h-153q-16 0 -28 12t-12 28t12 28t28 12h195q17 0 28.5 -12t11.5 -28 v-169q0 -27 -14 -43q-91 -110 -246 -110zM351 732q-45 0 -45 45q0 47 45 47q44 0 44 -47q0 -45 -44 -45z" />
<glyph unicode="&#x121;" horiz-adv-x="486" d="M421 298q0 -78 -50 -123.5t-139 -45.5q-60 0 -102 20q-14 -11 -14 -28q0 -38 67 -38h99q80 0 129.5 -33.5t49.5 -103.5q0 -74 -59.5 -110.5t-158.5 -36.5q-92 0 -153.5 33t-61.5 111q0 31 19 58t54 41q-59 19 -59 79q0 44 38 68q-35 46 -35 109q0 79 49.5 124.5 t137.5 45.5q59 0 103 -22q30 51 93 51q15 0 25.5 -10.5t10.5 -25.5t-10.5 -25.5t-25.5 -10.5q-29 0 -42 -21q35 -45 35 -106zM124 298q0 -43 28 -70.5t80 -27.5t80 27.5t28 70.5q0 44 -28 71.5t-80 27.5t-80 -27.5t-28 -71.5zM382 -54q0 32 -27.5 49t-72.5 17h-103 q-35 -6 -54 -25.5t-19 -43.5q0 -36 38.5 -54t99.5 -18q58 0 98 19t40 56zM234 540q-45 0 -45 45q0 47 45 47q44 0 44 -47q0 -45 -44 -45z" />
<glyph unicode="&#x122;" horiz-adv-x="668" d="M351 -14q-312 0 -312 350q0 175 81 263t231 88q77 0 137 -29t95 -78q9 -14 9 -27q0 -17 -12 -29t-29 -12q-20 0 -34 17q-64 80 -166 80q-226 0 -226 -273q0 -142 56 -207t170 -65q110 0 178 74v130h-153q-16 0 -28 12t-12 28t12 28t28 12h195q17 0 28.5 -12t11.5 -28 v-169q0 -27 -14 -43q-91 -110 -246 -110zM360 -41q47 0 47 -55q0 -101 -69 -163q-7 -5 -12 -5q-6 0 -10.5 4.5t-4.5 11.5q0 6 5 11q30 32 30 69q0 16 -16.5 39t-16.5 40q0 48 47 48z" />
<glyph unicode="&#x123;" horiz-adv-x="486" d="M237 506q-47 0 -47 55q0 101 69 163q7 5 12 5q6 0 10.5 -4.5t4.5 -11.5q0 -6 -5 -11q-30 -32 -30 -69q0 -16 16.5 -39t16.5 -40q0 -48 -47 -48zM421 298q0 -78 -50 -123.5t-139 -45.5q-60 0 -102 20q-14 -11 -14 -28q0 -38 67 -38h99q80 0 129.5 -33.5t49.5 -103.5 q0 -74 -59.5 -110.5t-158.5 -36.5q-92 0 -153.5 33t-61.5 111q0 31 19 58t54 41q-59 19 -59 79q0 44 38 68q-35 46 -35 109q0 79 49.5 124.5t137.5 45.5q59 0 103 -22q30 51 93 51q15 0 25.5 -10.5t10.5 -25.5t-10.5 -25.5t-25.5 -10.5q-29 0 -42 -21q35 -45 35 -106z M124 298q0 -43 28 -70.5t80 -27.5t80 27.5t28 70.5q0 44 -28 71.5t-80 27.5t-80 -27.5t-28 -71.5zM382 -54q0 32 -27.5 49t-72.5 17h-103q-35 -6 -54 -25.5t-19 -43.5q0 -36 38.5 -54t99.5 -18q58 0 98 19t40 56z" />
<glyph unicode="&#x124;" horiz-adv-x="634" d="M562 639v-605q0 -17 -12.5 -29.5t-29.5 -12.5t-29.5 12.5t-12.5 29.5v270h-322v-270q0 -17 -12.5 -29.5t-29.5 -12.5t-29.5 12.5t-12.5 29.5v605q0 17 12.5 29.5t29.5 12.5t29.5 -12.5t12.5 -29.5v-255h322v255q0 17 12.5 29.5t29.5 12.5t29.5 -12.5t12.5 -29.5zM400 724 l-76 58l-76 -58q-9 -7 -20 -7q-13 0 -22 9t-9 22q0 16 14 26l94 70q9 7 19 7t19 -7l94 -70q14 -10 14 -26q0 -13 -9 -22t-22 -9q-11 0 -20 7z" />
<glyph unicode="&#x125;" horiz-adv-x="492" d="M138 673v-270q16 27 50.5 46t80.5 19q52 0 88 -15t53 -41.5t24 -55t7 -64.5v-261q0 -17 -11.5 -28t-27.5 -11t-27.5 11t-11.5 28v247q0 56 -24 86.5t-82 30.5q-61 0 -90 -31.5t-29 -82.5v-250q0 -17 -11 -28t-28 -11t-28 11t-11 28v642q0 17 11 28t28 11t28 -11t11 -28z M177 724l-76 58l-76 -58q-9 -7 -20 -7q-13 0 -22 9t-9 22q0 16 14 26l94 70q9 7 19 7t19 -7l94 -70q14 -10 14 -26q0 -13 -9 -22t-22 -9q-11 0 -20 7z" />
<glyph unicode="&#x126;" horiz-adv-x="641" d="M562 639v-115h24q13 0 21.5 -9t8.5 -23q0 -13 -8.5 -22t-21.5 -9h-24v-427q0 -17 -12.5 -29.5t-29.5 -12.5t-29.5 12.5t-12.5 29.5v270h-322v-270q0 -17 -12.5 -29.5t-29.5 -12.5t-29.5 12.5t-12.5 29.5v427h-24q-13 0 -21.5 9t-8.5 22q0 14 8.5 23t21.5 9h24v115 q0 17 12.5 29.5t29.5 12.5t29.5 -12.5t12.5 -29.5v-115h322v115q0 17 12.5 29.5t29.5 12.5t29.5 -12.5t12.5 -29.5zM156 384h322v77h-322v-77z" />
<glyph unicode="&#x127;" horiz-adv-x="492" d="M138 673v-62h99q13 0 21.5 -9t8.5 -23q0 -13 -8.5 -22t-21.5 -9h-99v-145q16 27 50.5 46t80.5 19q52 0 88 -15t53 -41.5t24 -55t7 -64.5v-261q0 -17 -11.5 -28t-27.5 -11t-27.5 11t-11.5 28v247q0 56 -24 86.5t-82 30.5q-61 0 -90 -31.5t-29 -82.5v-250q0 -17 -11 -28 t-28 -11t-28 11t-11 28v517h-25q-13 0 -22 9t-9 22t9 22.5t22 9.5h25v62q0 17 11 28t28 11t28 -11t11 -28z" />
<glyph unicode="&#x128;" horiz-adv-x="228" d="M156 639v-605q0 -17 -12.5 -29.5t-29.5 -12.5t-29.5 12.5t-12.5 29.5v605q0 17 12.5 29.5t29.5 12.5t29.5 -12.5t12.5 -29.5zM174 791q20 0 38 22q10 14 25 14q13 0 22 -9t9 -22q0 -8 -3 -14q-24 -52 -87 -52q-28 0 -66.5 18t-55.5 18q-22 0 -38 -22q-10 -14 -26 -14 q-12 0 -21 9.5t-9 22.5q0 8 3 14q25 52 87 52q28 0 66 -18.5t56 -18.5z" />
<glyph unicode="&#x129;" horiz-adv-x="198" d="M160 588q20 0 38 22q10 14 25 14q13 0 22 -9t9 -22q0 -8 -3 -14q-24 -52 -87 -52q-28 0 -66.5 18t-55.5 18q-22 0 -38 -22q-10 -14 -26 -14q-12 0 -21 9.5t-9 22.5q0 8 3 14q25 52 87 52q28 0 66 -18.5t56 -18.5zM138 423v-392q0 -17 -11 -28t-28 -11t-28 11t-11 28v392 q0 17 11 28t28 11t28 -11t11 -28z" />
<glyph unicode="&#x12a;" horiz-adv-x="228" d="M156 639v-605q0 -17 -12.5 -29.5t-29.5 -12.5t-29.5 12.5t-12.5 29.5v605q0 17 12.5 29.5t29.5 12.5t29.5 -12.5t12.5 -29.5zM237 764q0 -13 -9 -22.5t-22 -9.5h-180q-13 0 -22 9.5t-9 22.5t9 22t22 9h180q13 0 22 -9t9 -22z" />
<glyph unicode="&#x12b;" horiz-adv-x="198" d="M223 562q0 -13 -9 -22.5t-22 -9.5h-180q-13 0 -22 9.5t-9 22.5t9 22t22 9h180q13 0 22 -9t9 -22zM138 423v-392q0 -17 -11 -28t-28 -11t-28 11t-11 28v392q0 17 11 28t28 11t28 -11t11 -28z" />
<glyph unicode="&#x12c;" horiz-adv-x="228" d="M156 639v-605q0 -17 -12.5 -29.5t-29.5 -12.5t-29.5 12.5t-12.5 29.5v605q0 17 12.5 29.5t29.5 12.5t29.5 -12.5t12.5 -29.5zM116 729q-55 0 -89.5 25.5t-34.5 78.5q0 12 8.5 21t20.5 9t20.5 -9t8.5 -21q0 -47 66 -47q65 0 65 47q0 12 8.5 21t20.5 9t20.5 -9t8.5 -21 q0 -53 -34.5 -78.5t-88.5 -25.5z" />
<glyph unicode="&#x12d;" horiz-adv-x="198" d="M103 526q-55 0 -89.5 25.5t-34.5 78.5q0 12 8.5 21t20.5 9t20.5 -9t8.5 -21q0 -47 66 -47q65 0 65 47q0 12 8.5 21t20.5 9t20.5 -9t8.5 -21q0 -53 -34.5 -78.5t-88.5 -25.5zM138 423v-392q0 -17 -11 -28t-28 -11t-28 11t-11 28v392q0 17 11 28t28 11t28 -11t11 -28z" />
<glyph unicode="&#x12e;" horiz-adv-x="228" d="M135 -1q-18 -12 -28.5 -21t-20 -25t-9.5 -35q0 -49 58 -49h10q9 1 23 5t20 4q11 0 18 -7.5t7 -18.5q0 -37 -83 -37q-48 0 -78.5 21.5t-30.5 64.5q0 32 19 58.5t49 40.5q-17 12 -17 34v605q0 17 12.5 29.5t29.5 12.5t29.5 -12.5t12.5 -29.5v-605q0 -20 -21 -35z" />
<glyph unicode="&#x12f;" horiz-adv-x="198" d="M172 -122q11 0 18 -7.5t7 -18.5q0 -37 -83 -37q-48 0 -78.5 21.5t-30.5 64.5q0 32 19 58.5t51 40.5q-15 12 -15 31v392q0 17 11 28t28 11t28 -11t11 -28v-392q0 -22 -23 -36q-54 -32 -54 -77q0 -49 58 -49h10q9 1 23 5t20 4zM100 536q-50 0 -50 50q0 53 50 53t50 -53 q0 -50 -50 -50z" />
<glyph unicode="&#x130;" horiz-adv-x="228" d="M156 639v-605q0 -17 -12.5 -29.5t-29.5 -12.5t-29.5 12.5t-12.5 29.5v605q0 17 12.5 29.5t29.5 12.5t29.5 -12.5t12.5 -29.5zM117 732q-45 0 -45 45q0 47 45 47q44 0 44 -47q0 -45 -44 -45z" />
<glyph unicode="&#x131;" horiz-adv-x="198" d="M138 423v-392q0 -17 -11 -28t-28 -11t-28 11t-11 28v392q0 17 11 28t28 11t28 -11t11 -28z" />
<glyph unicode="&#x132;" horiz-adv-x="628" d="M156 639v-605q0 -17 -12.5 -29.5t-29.5 -12.5t-29.5 12.5t-12.5 29.5v605q0 17 12.5 29.5t29.5 12.5t29.5 -12.5t12.5 -29.5zM556 639v-433q0 -100 -47 -159.5t-147 -59.5q-65 0 -113 26q-22 12 -22 36q0 17 12 29t29 12q8 0 21 -5q40 -16 73 -16q56 0 83 36.5t27 96.5 v437q0 17 12.5 29.5t29.5 12.5t29.5 -12.5t12.5 -29.5z" />
<glyph unicode="&#x133;" horiz-adv-x="398" d="M138 423v-392q0 -17 -11 -28t-28 -11t-28 11t-11 28v392q0 17 11 28t28 11t28 -11t11 -28zM100 536q-50 0 -50 50q0 53 50 53t50 -53q0 -50 -50 -50zM334 423v-445q0 -66 -41 -110t-106 -44q-17 0 -28 11t-11 28t11 28t28 11q30 0 49.5 22.5t19.5 53.5v445q0 17 11 28 t28 11t28 -11t11 -28zM296 536q-50 0 -50 50q0 53 50 53t50 -53q0 -50 -50 -50z" />
<glyph unicode="&#x134;" horiz-adv-x="416" d="M344 639v-433q0 -100 -47 -159.5t-147 -59.5q-65 0 -113 26q-22 12 -22 36q0 17 12 29t29 12q8 0 21 -5q40 -16 73 -16q56 0 83 36.5t27 96.5v437q0 17 12.5 29.5t29.5 12.5t29.5 -12.5t12.5 -29.5zM378 724l-76 58l-76 -58q-9 -7 -20 -7q-13 0 -22 9t-9 22q0 16 14 26 l94 70q9 7 19 7t19 -7l94 -70q14 -10 14 -26q0 -13 -9 -22t-22 -9q-11 0 -20 7z" />
<glyph unicode="&#x135;" horiz-adv-x="202" d="M138 423v-445q0 -66 -41 -110t-106 -44q-17 0 -28 11t-11 28t11 28t28 11q30 0 49.5 22.5t19.5 53.5v445q0 17 11 28t28 11t28 -11t11 -28zM176 526l-76 58l-76 -58q-9 -7 -20 -7q-13 0 -22 9t-9 22q0 16 14 26l94 70q9 7 19 7t19 -7l94 -70q14 -10 14 -26q0 -13 -9 -22 t-22 -9q-11 0 -20 7z" />
<glyph unicode="&#x136;" horiz-adv-x="552" d="M156 639v-274l272 301q14 15 32 15q17 0 29.5 -12.5t12.5 -29.5q0 -18 -12 -30l-200 -218l233 -331q9 -13 9 -26q0 -17 -12.5 -29.5t-29.5 -12.5q-21 0 -34 17l-226 319l-74 -79v-215q0 -17 -12.5 -29.5t-29.5 -12.5t-29.5 12.5t-12.5 29.5v605q0 17 12.5 29.5t29.5 12.5 t29.5 -12.5t12.5 -29.5zM293 -41q47 0 47 -55q0 -101 -69 -163q-7 -5 -12 -5q-6 0 -10.5 4.5t-4.5 11.5q0 6 5 11q30 32 30 69q0 16 -16.5 39t-16.5 40q0 48 47 48z" />
<glyph unicode="&#x137;" horiz-adv-x="448" d="M138 673v-389l217 169q12 9 25 9q16 0 27.5 -11t11.5 -28q0 -19 -16 -32l-150 -115l165 -219q9 -12 9 -26q0 -17 -11.5 -28t-27.5 -11q-19 0 -31 15l-165 226l-54 -41v-161q0 -17 -11 -28t-28 -11t-28 11t-11 28v642q0 17 11 28t28 11t28 -11t11 -28zM245 -41 q47 0 47 -55q0 -101 -69 -163q-7 -5 -12 -5q-6 0 -10.5 4.5t-4.5 11.5q0 6 5 11q30 32 30 69q0 16 -16.5 39t-16.5 40q0 48 47 48z" />
<glyph unicode="&#x138;" horiz-adv-x="448" d="M138 423v-155l217 185q12 9 25 9q16 0 27.5 -11t11.5 -28q0 -19 -16 -32l-147 -122l162 -212q9 -12 9 -26q0 -17 -11.5 -28t-27.5 -11q-19 0 -31 15l-165 214l-54 -45v-145q0 -17 -11 -28t-28 -11t-28 11t-11 28v392q0 17 11 28t28 11t28 -11t11 -28z" />
<glyph unicode="&#x139;" horiz-adv-x="481" d="M156 639v-557h259q17 0 29 -12t12 -29t-12 -29t-29 -12h-301q-17 0 -29.5 12.5t-12.5 29.5v597q0 17 12.5 29.5t29.5 12.5t29.5 -12.5t12.5 -29.5zM70 723q-21 18 -4 37l87 108q9 11 21.5 11t25.5 -12q26 -27 4 -49l-98 -94q-18 -18 -36 -1z" />
<glyph unicode="&#x13a;" horiz-adv-x="225" d="M100 712q16 0 27.5 -11t11.5 -28v-566q0 -37 31 -37q16 0 27.5 -11t11.5 -28t-11.5 -28t-27.5 -11q-109 0 -109 120v561q0 17 11.5 28t27.5 11zM51 744q-21 18 -4 37l87 108q9 11 21.5 11t25.5 -12q27 -26 4 -49l-98 -94q-18 -18 -36 -1z" />
<glyph unicode="&#x13b;" horiz-adv-x="481" d="M156 639v-557h259q17 0 29 -12t12 -29t-12 -29t-29 -12h-301q-17 0 -29.5 12.5t-12.5 29.5v597q0 17 12.5 29.5t29.5 12.5t29.5 -12.5t12.5 -29.5zM277 -41q47 0 47 -55q0 -101 -69 -163q-7 -5 -12 -5q-6 0 -10.5 4.5t-4.5 11.5q0 6 5 11q30 32 30 69q0 16 -16.5 39 t-16.5 40q0 48 47 48z" />
<glyph unicode="&#x13c;" horiz-adv-x="225" d="M100 712q16 0 27.5 -11t11.5 -28v-566q0 -37 31 -37q16 0 27.5 -11t11.5 -28t-11.5 -28t-27.5 -11q-109 0 -109 120v561q0 17 11.5 28t27.5 11zM133 -41q47 0 47 -55q0 -101 -69 -163q-7 -5 -12 -5q-6 0 -10.5 4.5t-4.5 11.5q0 6 5 11q30 32 30 69q0 16 -16.5 39 t-16.5 40q0 48 47 48z" />
<glyph unicode="&#x13d;" horiz-adv-x="481" d="M156 639v-557h259q17 0 29 -12t12 -29t-12 -29t-29 -12h-301q-17 0 -29.5 12.5t-12.5 29.5v597q0 17 12.5 29.5t29.5 12.5t29.5 -12.5t12.5 -29.5zM349 681q56 0 56 -65q0 -61 -24 -116t-62 -85q-7 -6 -15 -6q-7 0 -12.5 5t-5.5 13q0 7 5 13q21 28 30 47t9 45 q0 19 -18 45.5t-18 46.5q0 57 55 57z" />
<glyph unicode="&#x13e;" horiz-adv-x="271" d="M100 712q16 0 27.5 -11t11.5 -28v-566q0 -37 31 -37q16 0 27.5 -11t11.5 -28t-11.5 -28t-27.5 -11q-109 0 -109 120v561q0 17 11.5 28t27.5 11zM250 712q56 0 56 -65q0 -61 -24 -116t-62 -85q-8 -6 -15 -6t-12.5 5t-5.5 13q0 7 5 13q21 28 30 47t9 45q0 19 -18 45.5 t-18 46.5q0 57 55 57z" />
<glyph unicode="&#x13f;" horiz-adv-x="481" d="M156 639v-557h259q17 0 29 -12t12 -29t-12 -29t-29 -12h-301q-17 0 -29.5 12.5t-12.5 29.5v597q0 17 12.5 29.5t29.5 12.5t29.5 -12.5t12.5 -29.5zM370 287q-55 0 -55 56q0 57 55 57t55 -57q0 -56 -55 -56z" />
<glyph unicode="&#x140;" horiz-adv-x="314" d="M100 712q16 0 27.5 -11t11.5 -28v-566q0 -37 31 -37q16 0 27.5 -11t11.5 -28t-11.5 -28t-27.5 -11q-109 0 -109 120v561q0 17 11.5 28t27.5 11zM239 317q-55 0 -55 56q0 57 55 57t55 -57q0 -56 -55 -56z" />
<glyph unicode="&#x141;" horiz-adv-x="481" d="M156 639v-280l156 71q8 3 16 3q15 0 26 -11t11 -27q0 -25 -23 -35l-186 -85v-193h259q17 0 29 -12t12 -29t-12 -29t-29 -12h-301q-17 0 -29.5 12.5t-12.5 29.5v193l-32 -13q-10 -4 -16 -4q-15 0 -26 11t-11 27q0 26 24 37l61 26v320q0 17 12.5 29.5t29.5 12.5t29.5 -12.5 t12.5 -29.5z" />
<glyph unicode="&#x142;" horiz-adv-x="225" d="M100 712q16 0 27.5 -11t11.5 -28v-247l63 36q10 5 17 5q14 0 23.5 -10t9.5 -25q0 -22 -17 -31l-96 -55v-239q0 -37 31 -37q16 0 27.5 -11t11.5 -28t-11.5 -28t-27.5 -11q-109 0 -109 120v190l-17 -9q-10 -6 -18 -6q-14 0 -24 10t-10 25q0 21 17 30l52 29v292 q0 17 11.5 28t27.5 11z" />
<glyph unicode="&#x143;" horiz-adv-x="619" d="M471 173v466q0 17 12.5 29.5t29.5 12.5t29.5 -12.5t12.5 -29.5v-605q0 -17 -12.5 -29.5t-29.5 -12.5q-23 0 -36 19l-329 489v-466q0 -17 -12.5 -29.5t-29.5 -12.5t-29.5 12.5t-12.5 29.5v605q0 17 12.5 29.5t29.5 12.5q23 0 36 -19zM271 722q-21 18 -4 37l87 108 q9 11 21.5 11t25.5 -12q27 -26 4 -49l-98 -94q-18 -18 -36 -1z" />
<glyph unicode="&#x144;" horiz-adv-x="492" d="M138 423v-20q16 27 50.5 46t80.5 19q52 0 88 -15t53 -41.5t24 -55t7 -64.5v-261q0 -17 -11.5 -28t-27.5 -11t-27.5 11t-11.5 28v247q0 56 -24 86.5t-82 30.5q-61 0 -90 -31.5t-29 -82.5v-250q0 -17 -11 -28t-28 -11t-28 11t-11 28v392q0 17 11 28t28 11t28 -11t11 -28z M201 517q-21 18 -4 37l87 108q9 11 21.5 11t25.5 -12q27 -27 4 -49l-98 -94q-18 -18 -36 -1z" />
<glyph unicode="&#x145;" horiz-adv-x="619" d="M471 173v466q0 17 12.5 29.5t29.5 12.5t29.5 -12.5t12.5 -29.5v-605q0 -17 -12.5 -29.5t-29.5 -12.5q-23 0 -36 19l-329 489v-466q0 -17 -12.5 -29.5t-29.5 -12.5t-29.5 12.5t-12.5 29.5v605q0 17 12.5 29.5t29.5 12.5q23 0 36 -19zM310 -41q47 0 47 -55q0 -101 -69 -163 q-7 -5 -12 -5q-6 0 -10.5 4.5t-4.5 11.5q0 6 5 11q30 32 30 69q0 16 -16.5 39t-16.5 40q0 48 47 48z" />
<glyph unicode="&#x146;" horiz-adv-x="492" d="M138 423v-20q16 27 50.5 46t80.5 19q52 0 88 -15t53 -41.5t24 -55t7 -64.5v-261q0 -17 -11.5 -28t-27.5 -11t-27.5 11t-11.5 28v247q0 56 -24 86.5t-82 30.5q-61 0 -90 -31.5t-29 -82.5v-250q0 -17 -11 -28t-28 -11t-28 11t-11 28v392q0 17 11 28t28 11t28 -11t11 -28z M254 -41q47 0 47 -55q0 -101 -69 -163q-7 -5 -12 -5q-6 0 -10.5 4.5t-4.5 11.5q0 6 5 11q30 32 30 69q0 16 -16.5 39t-16.5 40q0 48 47 48z" />
<glyph unicode="&#x147;" horiz-adv-x="619" d="M471 173v466q0 17 12.5 29.5t29.5 12.5t29.5 -12.5t12.5 -29.5v-605q0 -17 -12.5 -29.5t-29.5 -12.5q-23 0 -36 19l-329 489v-466q0 -17 -12.5 -29.5t-29.5 -12.5t-29.5 12.5t-12.5 29.5v605q0 17 12.5 29.5t29.5 12.5q23 0 36 -19zM321 785l76 58q9 7 20 7q13 0 22 -9 t9 -22q0 -16 -14 -26l-94 -70q-9 -7 -19 -7t-19 7l-94 70q-14 10 -14 26q0 13 9 22t22 9q11 0 20 -7z" />
<glyph unicode="&#x148;" horiz-adv-x="492" d="M138 423v-20q16 27 50.5 46t80.5 19q52 0 88 -15t53 -41.5t24 -55t7 -64.5v-261q0 -17 -11.5 -28t-27.5 -11t-27.5 11t-11.5 28v247q0 56 -24 86.5t-82 30.5q-61 0 -90 -31.5t-29 -82.5v-250q0 -17 -11 -28t-28 -11t-28 11t-11 28v392q0 17 11 28t28 11t28 -11t11 -28z M261 576l76 58q9 7 20 7q13 0 22 -9t9 -22q0 -16 -14 -26l-94 -70q-9 -7 -19 -7t-19 7l-94 70q-14 10 -14 26q0 13 9 22t22 9q11 0 20 -7z" />
<glyph unicode="&#x149;" horiz-adv-x="506" d="M152 423v-20q16 27 50.5 46t80.5 19q52 0 88 -15t53 -41.5t24 -55t7 -64.5v-261q0 -17 -11.5 -28t-27.5 -11t-27.5 11t-11.5 28v247q0 56 -24 86.5t-82 30.5q-61 0 -90 -31.5t-29 -82.5v-250q0 -17 -11 -28t-28 -11t-28 11t-11 28v392q0 17 11 28t28 11t28 -11t11 -28z M53 674q47 0 47 -55q0 -101 -69 -163q-7 -5 -12 -5q-6 0 -10.5 4.5t-4.5 11.5q0 6 5 11q30 32 30 69q0 16 -16.5 39t-16.5 40q0 48 47 48z" />
<glyph unicode="&#x14a;" horiz-adv-x="619" d="M361 -201q-17 0 -29 12t-12 29t12 29t29 12q56 0 83 36.5t27 96.5v6l-323 480v-466q0 -17 -12.5 -29.5t-29.5 -12.5t-29.5 12.5t-12.5 29.5v605q0 17 12.5 29.5t29.5 12.5q23 0 36 -19l329 -489v466q0 17 12.5 29.5t29.5 12.5t29.5 -12.5t12.5 -29.5v-621 q0 -100 -47 -159.5t-147 -59.5z" />
<glyph unicode="&#x14b;" horiz-adv-x="492" d="M441 292v-339q0 -66 -41 -110t-106 -44q-16 0 -27.5 11.5t-11.5 27.5t11.5 27.5t27.5 11.5q30 0 49.5 22.5t19.5 53.5v325q0 56 -24 86.5t-82 30.5q-61 0 -90 -31.5t-29 -82.5v-250q0 -17 -11 -28t-28 -11t-28 11t-11 28v392q0 17 11 28t28 11t28 -11t11 -28v-20 q16 27 50.5 46t80.5 19q52 0 88 -15t53 -41.5t24 -55t7 -64.5z" />
<glyph unicode="&#x14c;" horiz-adv-x="698" d="M349 -14q-150 0 -230 88t-80 262q0 175 80 263t230 88t230 -88t80 -263q0 -174 -80 -262t-230 -88zM349 609q-110 0 -167 -69t-57 -204q0 -134 57 -203t167 -69t167 69t57 203q0 135 -57 204t-167 69zM476 764q0 -13 -9 -22.5t-22 -9.5h-180q-13 0 -22 9.5t-9 22.5t9 22 t22 9h180q13 0 22 -9t9 -22z" />
<glyph unicode="&#x14d;" d="M455 227q0 -120 -55 -180t-156 -60q-100 0 -155 60t-55 180q0 121 54.5 181t155.5 60t156 -60t55 -181zM375 227q0 169 -131 169q-130 0 -130 -169q0 -168 130 -168q131 0 131 168zM367 562q0 -13 -9 -22.5t-22 -9.5h-180q-13 0 -22 9.5t-9 22.5t9 22t22 9h180 q13 0 22 -9t9 -22z" />
<glyph unicode="&#x14e;" horiz-adv-x="698" d="M349 -14q-150 0 -230 88t-80 262q0 175 80 263t230 88t230 -88t80 -263q0 -174 -80 -262t-230 -88zM349 609q-110 0 -167 -69t-57 -204q0 -134 57 -203t167 -69t167 69t57 203q0 135 -57 204t-167 69zM355 729q-55 0 -89.5 25.5t-34.5 78.5q0 12 8.5 21t20.5 9t20.5 -9 t8.5 -21q0 -47 66 -47q65 0 65 47q0 12 8.5 21t20.5 9t20.5 -9t8.5 -21q0 -53 -34.5 -78.5t-88.5 -25.5z" />
<glyph unicode="&#x14f;" d="M455 227q0 -120 -55 -180t-156 -60q-100 0 -155 60t-55 180q0 121 54.5 181t155.5 60t156 -60t55 -181zM375 227q0 169 -131 169q-130 0 -130 -169q0 -168 130 -168q131 0 131 168zM247 526q-55 0 -89.5 25.5t-34.5 78.5q0 12 8.5 21t20.5 9t20.5 -9t8.5 -21 q0 -47 66 -47q65 0 65 47q0 12 8.5 21t20.5 9t20.5 -9t8.5 -21q0 -53 -34.5 -78.5t-88.5 -25.5z" />
<glyph unicode="&#x150;" horiz-adv-x="698" d="M349 -14q-150 0 -230 88t-80 262q0 175 80 263t230 88t230 -88t80 -263q0 -174 -80 -262t-230 -88zM349 609q-110 0 -167 -69t-57 -204q0 -134 57 -203t167 -69t167 69t57 203q0 135 -57 204t-167 69zM267 722q-19 18 -4 37l88 108q20 24 47 -1q27 -27 3 -49l-97 -94 q-18 -17 -37 -1zM391 722q-21 18 -4 37l87 108q9 11 21.5 11t25.5 -12q27 -26 4 -49l-98 -94q-18 -18 -36 -1z" />
<glyph unicode="&#x151;" d="M455 227q0 -120 -55 -180t-156 -60q-100 0 -155 60t-55 180q0 121 54.5 181t155.5 60t156 -60t55 -181zM375 227q0 169 -131 169q-130 0 -130 -169q0 -168 130 -168q131 0 131 168zM150 517q-19 18 -4 37l88 108q20 24 47 -1q27 -27 3 -49l-97 -94q-18 -17 -37 -1z M274 517q-21 18 -4 37l87 108q9 11 21.5 11t25.5 -12q26 -27 4 -49l-98 -94q-18 -18 -36 -1z" />
<glyph unicode="&#x152;" horiz-adv-x="921" d="M839 0h-325q-17 0 -24 10q-64 -24 -138 -24q-150 0 -231.5 88t-81.5 262q0 175 81.5 263t231.5 88q78 0 137 -26q8 12 25 12h314q17 0 29 -12t12 -29t-12 -29t-29 -12h-272v-212h207q17 0 28.5 -11.5t11.5 -28.5t-11.5 -28.5t-28.5 -11.5h-207v-217h283q17 0 29 -12 t12 -29t-12 -29t-29 -12zM349 609q-110 0 -167 -69t-57 -204q0 -134 57 -203t167 -69q73 0 123 30v484q-49 31 -123 31z" />
<glyph unicode="&#x153;" horiz-adv-x="808" d="M244 468q117 0 171 -81q52 81 166 81q58 0 99 -21.5t60 -56t27 -65.5t8 -61q0 -65 -54 -65h-267q0 -64 37 -99t100 -35q60 0 109 36q12 9 25 9q16 0 27 -11t11 -27t-13 -29q-60 -56 -159 -56q-124 0 -176 80q-53 -80 -171 -80q-100 0 -155 60t-55 180q0 121 54.5 181 t155.5 60zM375 227q0 169 -131 169q-130 0 -130 -169q0 -168 130 -168q131 0 131 168zM581 396q-57 0 -89 -33.5t-37 -91.5h240q0 52 -27 88.5t-87 36.5z" />
<glyph unicode="&#x154;" horiz-adv-x="549" d="M156 274v-240q0 -17 -12.5 -29.5t-29.5 -12.5t-29.5 12.5t-12.5 29.5v597q0 17 12.5 29.5t29.5 12.5h194q89 0 142.5 -57t53.5 -142q0 -77 -45 -133.5t-120 -62.5l166 -217q10 -13 10 -27q0 -17 -12.5 -29.5t-29.5 -12.5q-21 0 -35 18l-187 264h-95zM156 591v-237h154 q48 0 78 35.5t30 84.5q0 50 -30.5 83.5t-80.5 33.5h-151zM218 723q-21 18 -4 37l87 108q9 11 21.5 11t25.5 -12q26 -27 4 -49l-98 -94q-18 -18 -36 -1z" />
<glyph unicode="&#x155;" horiz-adv-x="312" d="M138 423v-31q15 32 50 53t77 21q17 0 28 -11t11 -28t-11 -28t-28 -11q-59 0 -93 -35t-34 -92v-230q0 -17 -11 -28t-28 -11t-28 11t-11 28v392q0 17 11 28t28 11t28 -11t11 -28zM138 517q-21 18 -4 37l87 108q9 11 21.5 11t25.5 -12q26 -27 4 -49l-98 -94q-18 -18 -36 -1z " />
<glyph unicode="&#x156;" horiz-adv-x="549" d="M156 274v-240q0 -17 -12.5 -29.5t-29.5 -12.5t-29.5 12.5t-12.5 29.5v597q0 17 12.5 29.5t29.5 12.5h194q89 0 142.5 -57t53.5 -142q0 -77 -45 -133.5t-120 -62.5l166 -217q10 -13 10 -27q0 -17 -12.5 -29.5t-29.5 -12.5q-21 0 -35 18l-187 264h-95zM156 591v-237h154 q48 0 78 35.5t30 84.5q0 50 -30.5 83.5t-80.5 33.5h-151zM288 -41q47 0 47 -55q0 -101 -69 -163q-7 -5 -12 -5q-6 0 -10.5 4.5t-4.5 11.5q0 6 5 11q30 32 30 69q0 16 -16.5 39t-16.5 40q0 48 47 48z" />
<glyph unicode="&#x157;" horiz-adv-x="312" d="M138 423v-31q15 32 50 53t77 21q17 0 28 -11t11 -28t-11 -28t-28 -11q-59 0 -93 -35t-34 -92v-230q0 -17 -11 -28t-28 -11t-28 11t-11 28v392q0 17 11 28t28 11t28 -11t11 -28zM98 -41q47 0 47 -55q0 -101 -69 -163q-7 -5 -12 -5q-6 0 -10.5 4.5t-4.5 11.5q0 6 5 11 q30 32 30 69q0 16 -16.5 39t-16.5 40q0 48 47 48z" />
<glyph unicode="&#x158;" horiz-adv-x="549" d="M156 274v-240q0 -17 -12.5 -29.5t-29.5 -12.5t-29.5 12.5t-12.5 29.5v597q0 17 12.5 29.5t29.5 12.5h194q89 0 142.5 -57t53.5 -142q0 -77 -45 -133.5t-120 -62.5l166 -217q10 -13 10 -27q0 -17 -12.5 -29.5t-29.5 -12.5q-21 0 -35 18l-187 264h-95zM156 591v-237h154 q48 0 78 35.5t30 84.5q0 50 -30.5 83.5t-80.5 33.5h-151zM275 785l76 58q9 7 20 7q13 0 22 -9t9 -22q0 -16 -14 -26l-94 -70q-9 -7 -19 -7t-19 7l-94 70q-14 10 -14 26q0 13 9 22t22 9q11 0 20 -7z" />
<glyph unicode="&#x159;" horiz-adv-x="312" d="M138 423v-31q15 32 50 53t77 21q17 0 28 -11t11 -28t-11 -28t-28 -11q-59 0 -93 -35t-34 -92v-230q0 -17 -11 -28t-28 -11t-28 11t-11 28v392q0 17 11 28t28 11t28 -11t11 -28zM171 576l76 58q9 7 20 7q13 0 22 -9t9 -22q0 -16 -14 -26l-94 -70q-9 -7 -19 -7t-19 7 l-94 70q-14 10 -14 26q0 13 9 22t22 9q11 0 20 -7z" />
<glyph unicode="&#x15a;" horiz-adv-x="560" d="M437 538q-63 71 -154 71q-67 0 -98.5 -29t-31.5 -70q0 -43 37.5 -70t91 -43.5t107 -37.5t91 -65t37.5 -112q0 -94 -60.5 -145t-177.5 -51q-81 0 -146.5 35.5t-94.5 86.5q-5 10 -5 20q0 17 11.5 29t28.5 12q20 0 34 -17q71 -88 172 -88q76 0 115 30.5t39 87.5q0 41 -27 69 t-67.5 42t-87.5 31.5t-87.5 36t-67.5 57t-27 92.5q0 77 53 127t161 50q72 0 129 -26t88 -72q8 -11 8 -25q0 -17 -12 -28.5t-29 -11.5t-30 14zM244 723q-21 18 -4 37l87 108q9 11 21.5 11t25.5 -12q26 -27 4 -49l-98 -94q-18 -18 -36 -1z" />
<glyph unicode="&#x15b;" horiz-adv-x="424" d="M209 397q-35 0 -57 -15t-22 -41t26 -43t63.5 -28.5t75 -26t63.5 -44.5t26 -74q0 -67 -47 -102.5t-124 -35.5q-58 0 -104.5 22t-69.5 50q-9 13 -9 25q0 16 11 27t27 11q15 0 26 -10q54 -50 119 -50q93 0 93 60q0 27 -26 44.5t-63.5 29t-75 25.5t-63.5 44t-26 75 q0 62 44 95t113 33q109 0 156 -62q8 -12 8 -23q0 -16 -11 -26.5t-26 -10.5q-14 0 -26 11q-48 40 -101 40zM162 517q-21 18 -4 37l87 108q9 11 21.5 11t25.5 -12q26 -27 4 -49l-98 -94q-18 -18 -36 -1z" />
<glyph unicode="&#x15c;" horiz-adv-x="560" d="M437 538q-63 71 -154 71q-67 0 -98.5 -29t-31.5 -70q0 -43 37.5 -70t91 -43.5t107 -37.5t91 -65t37.5 -112q0 -94 -60.5 -145t-177.5 -51q-81 0 -146.5 35.5t-94.5 86.5q-5 10 -5 20q0 17 11.5 29t28.5 12q20 0 34 -17q71 -88 172 -88q76 0 115 30.5t39 87.5q0 41 -27 69 t-67.5 42t-87.5 31.5t-87.5 36t-67.5 57t-27 92.5q0 77 53 127t161 50q72 0 129 -26t88 -72q8 -11 8 -25q0 -17 -12 -28.5t-29 -11.5t-30 14zM365 724l-76 58l-76 -58q-9 -7 -20 -7q-13 0 -22 9t-9 22q0 16 14 26l94 70q9 7 19 7t19 -7l94 -70q14 -10 14 -26q0 -13 -9 -22 t-22 -9q-11 0 -20 7z" />
<glyph unicode="&#x15d;" horiz-adv-x="424" d="M209 397q-35 0 -57 -15t-22 -41t26 -43t63.5 -28.5t75 -26t63.5 -44.5t26 -74q0 -67 -47 -102.5t-124 -35.5q-58 0 -104.5 22t-69.5 50q-9 13 -9 25q0 16 11 27t27 11q15 0 26 -10q54 -50 119 -50q93 0 93 60q0 27 -26 44.5t-63.5 29t-75 25.5t-63.5 44t-26 75 q0 62 44 95t113 33q109 0 156 -62q8 -12 8 -23q0 -16 -11 -26.5t-26 -10.5q-14 0 -26 11q-48 40 -101 40zM294 526l-76 58l-76 -58q-9 -7 -20 -7q-13 0 -22 9t-9 22q0 16 14 26l94 70q9 7 19 7t19 -7l94 -70q14 -10 14 -26q0 -13 -9 -22t-22 -9q-11 0 -20 7z" />
<glyph unicode="&#x15e;" horiz-adv-x="560" d="M389 -139q0 -91 -102 -91q-44 0 -71 20q-9 6 -9 18q0 9 6.5 15.5t14.5 6.5q6 0 12 -3q24 -12 49 -12q26 0 38.5 10t12.5 36q0 44 -48 44q-9 0 -23 -2.5t-20 -2.5q-19 0 -19 22l1 67q-66 9 -117.5 42.5t-75.5 76.5q-5 10 -5 20q0 17 11.5 29t28.5 12q20 0 34 -17 q71 -88 172 -88q76 0 115 30.5t39 87.5q0 41 -27 69t-67.5 42t-87.5 31.5t-87.5 36t-67.5 57t-27 92.5q0 77 53 127t161 50q72 0 129 -26t88 -72q8 -11 8 -25q0 -17 -12 -28.5t-29 -11.5t-30 14q-63 71 -154 71q-67 0 -98.5 -29t-31.5 -70q0 -43 37.5 -70t91 -43.5 t107 -37.5t91 -65t37.5 -112q0 -94 -60.5 -145t-177.5 -51h-8l-3 -42q16 2 31 2q43 0 66.5 -21.5t23.5 -63.5z" />
<glyph unicode="&#x15f;" horiz-adv-x="424" d="M324 -139q0 -91 -102 -91q-44 0 -71 20q-9 6 -9 18q0 9 6.5 15.5t14.5 6.5q6 0 12 -3q24 -12 49 -12q26 0 38.5 10t12.5 36q0 44 -48 44q-9 0 -23 -2.5t-20 -2.5q-19 0 -19 22l2 69q-43 8 -76.5 27t-51.5 41q-9 13 -9 25q0 16 11 27t27 11q15 0 26 -10q54 -50 119 -50 q93 0 93 60q0 27 -26 44.5t-63.5 29t-75 25.5t-63.5 44t-26 75q0 62 44 95t113 33q109 0 156 -62q8 -12 8 -23q0 -16 -11 -26.5t-26 -10.5q-14 0 -26 11q-48 40 -101 40q-35 0 -57 -15t-22 -41t26 -43t63.5 -28.5t75 -26t63.5 -44.5t26 -74q0 -67 -47 -102.5t-124 -35.5h-6 l-4 -43q16 2 31 2q43 0 66.5 -21.5t23.5 -63.5z" />
<glyph unicode="&#x160;" horiz-adv-x="560" d="M437 538q-63 71 -154 71q-67 0 -98.5 -29t-31.5 -70q0 -43 37.5 -70t91 -43.5t107 -37.5t91 -65t37.5 -112q0 -94 -60.5 -145t-177.5 -51q-81 0 -146.5 35.5t-94.5 86.5q-5 10 -5 20q0 17 11.5 29t28.5 12q20 0 34 -17q71 -88 172 -88q76 0 115 30.5t39 87.5q0 41 -27 69 t-67.5 42t-87.5 31.5t-87.5 36t-67.5 57t-27 92.5q0 77 53 127t161 50q72 0 129 -26t88 -72q8 -11 8 -25q0 -17 -12 -28.5t-29 -11.5t-30 14zM290 785l76 58q9 7 20 7q13 0 22 -9t9 -22q0 -16 -14 -26l-94 -70q-9 -7 -19 -7t-19 7l-94 70q-14 10 -14 26q0 13 9 22t22 9 q11 0 20 -7z" />
<glyph unicode="&#x161;" horiz-adv-x="424" d="M209 397q-35 0 -57 -15t-22 -41t26 -43t63.5 -28.5t75 -26t63.5 -44.5t26 -74q0 -67 -47 -102.5t-124 -35.5q-58 0 -104.5 22t-69.5 50q-9 13 -9 25q0 16 11 27t27 11q15 0 26 -10q54 -50 119 -50q93 0 93 60q0 27 -26 44.5t-63.5 29t-75 25.5t-63.5 44t-26 75 q0 62 44 95t113 33q109 0 156 -62q8 -12 8 -23q0 -16 -11 -26.5t-26 -10.5q-14 0 -26 11q-48 40 -101 40zM214 576l76 58q9 7 20 7q13 0 22 -9t9 -22q0 -16 -14 -26l-94 -70q-9 -7 -19 -7t-19 7l-94 70q-14 10 -14 26q0 13 9 22t22 9q11 0 20 -7z" />
<glyph unicode="&#x162;" horiz-adv-x="544" d="M483 593h-169v-559q0 -17 -12.5 -29.5t-29.5 -12.5t-29.5 12.5t-12.5 29.5v559h-169q-17 0 -28.5 11.5t-11.5 28.5t11.5 28.5t28.5 11.5h422q17 0 28.5 -11.5t11.5 -28.5t-11.5 -28.5t-28.5 -11.5zM271 -41q47 0 47 -55q0 -101 -69 -163q-7 -5 -12 -5q-6 0 -10.5 4.5 t-4.5 11.5q0 6 5 11q30 32 30 69q0 16 -16.5 39t-16.5 40q0 48 47 48z" />
<glyph unicode="&#x163;" horiz-adv-x="288" d="M166 552v-98h60q15 0 25.5 -10.5t10.5 -25.5t-10.5 -25.5t-25.5 -10.5h-60v-263q0 -24 15 -37.5t36 -13.5q16 0 27 -11t11 -27t-11 -27t-27 -11q-61 0 -95 36t-34 95v259h-33q-15 0 -25.5 10.5t-10.5 25.5t10.5 25.5t25.5 10.5h33v98q0 16 11 27.5t28 11.5t28 -11.5 t11 -27.5zM164 -41q47 0 47 -55q0 -101 -69 -163q-7 -5 -12 -5q-6 0 -10.5 4.5t-4.5 11.5q0 6 5 11q30 32 30 69q0 16 -16.5 39t-16.5 40q0 48 47 48z" />
<glyph unicode="&#x164;" horiz-adv-x="544" d="M483 593h-169v-559q0 -17 -12.5 -29.5t-29.5 -12.5t-29.5 12.5t-12.5 29.5v559h-169q-17 0 -28.5 11.5t-11.5 28.5t11.5 28.5t28.5 11.5h422q17 0 28.5 -11.5t11.5 -28.5t-11.5 -28.5t-28.5 -11.5zM276 785l76 58q9 7 20 7q13 0 22 -9t9 -22q0 -16 -14 -26l-94 -70 q-9 -7 -19 -7t-19 7l-94 70q-14 10 -14 26q0 13 9 22t22 9q11 0 20 -7z" />
<glyph unicode="&#x165;" horiz-adv-x="360" d="M166 552v-98h60q15 0 25.5 -10.5t10.5 -25.5t-10.5 -25.5t-25.5 -10.5h-60v-263q0 -24 15 -37.5t36 -13.5q16 0 27 -11t11 -27t-11 -27t-27 -11q-61 0 -95 36t-34 95v259h-33q-15 0 -25.5 10.5t-10.5 25.5t10.5 25.5t25.5 10.5h33v98q0 16 11 27.5t28 11.5t28 -11.5 t11 -27.5zM315 723q56 0 56 -65q0 -61 -24 -116t-62 -85q-7 -6 -15 -6q-7 0 -12.5 5t-5.5 13q0 7 5 13q21 28 30 47t9 45q0 19 -18 45.5t-18 46.5q0 57 55 57z" />
<glyph unicode="&#x166;" horiz-adv-x="544" d="M483 593h-169v-211h71q14 0 24.5 -11t10.5 -26t-10.5 -25.5t-24.5 -10.5h-71v-275q0 -17 -12.5 -29.5t-29.5 -12.5t-29.5 12.5t-12.5 29.5v275h-74q-14 0 -24.5 10.5t-10.5 25.5t10.5 26t24.5 11h74v211h-169q-17 0 -28.5 11.5t-11.5 28.5t11.5 28.5t28.5 11.5h422 q17 0 28.5 -11.5t11.5 -28.5t-11.5 -28.5t-28.5 -11.5z" />
<glyph unicode="&#x167;" horiz-adv-x="288" d="M166 552v-98h60q15 0 25.5 -10.5t10.5 -25.5t-10.5 -25.5t-25.5 -10.5h-60v-66h66q13 0 21.5 -9t8.5 -22q0 -14 -8.5 -23t-21.5 -9h-66v-134q0 -24 15 -37.5t36 -13.5q16 0 27 -11t11 -27t-11 -27t-27 -11q-61 0 -95 36t-34 95v130h-38q-13 0 -22 9.5t-9 22.5t9 22t22 9 h38v66h-33q-15 0 -25.5 10.5t-10.5 25.5t10.5 25.5t25.5 10.5h33v98q0 16 11 27.5t28 11.5t28 -11.5t11 -27.5z" />
<glyph unicode="&#x168;" horiz-adv-x="616" d="M310 -14q-240 0 -240 226v427q0 17 12.5 29.5t29.5 12.5t29.5 -12.5t12.5 -29.5v-427q0 -148 156 -148q153 0 153 148v423q0 19 13 32.5t31 13.5q19 0 31.5 -13.5t12.5 -32.5v-423q0 -46 -11 -83.5t-36.5 -71t-74.5 -52.5t-119 -19zM378 791q20 0 38 22q10 14 25 14 q13 0 22 -9t9 -22q0 -8 -3 -14q-24 -52 -87 -52q-28 0 -66.5 18t-55.5 18q-22 0 -38 -22q-10 -14 -26 -14q-12 0 -21 9.5t-9 22.5q0 8 3 14q25 52 87 52q28 0 66 -18.5t56 -18.5z" />
<glyph unicode="&#x169;" horiz-adv-x="480" d="M240 -13q-57 0 -95.5 14.5t-58 42t-27.5 58t-8 70.5v251q0 17 11.5 28t27.5 11t27.5 -11t11.5 -28v-251q0 -111 111 -111t111 111v251q0 17 11.5 28t27.5 11t27.5 -11t11.5 -28v-251q0 -40 -8 -70.5t-27.5 -58t-58 -42t-95.5 -14.5zM306 588q20 0 38 22q10 14 25 14 q13 0 22 -9t9 -22q0 -8 -3 -14q-24 -52 -87 -52q-28 0 -66.5 18t-55.5 18q-22 0 -38 -22q-10 -14 -26 -14q-12 0 -21 9.5t-9 22.5q0 8 3 14q25 52 87 52q28 0 66 -18.5t56 -18.5z" />
<glyph unicode="&#x16a;" horiz-adv-x="616" d="M310 -14q-240 0 -240 226v427q0 17 12.5 29.5t29.5 12.5t29.5 -12.5t12.5 -29.5v-427q0 -148 156 -148q153 0 153 148v423q0 19 13 32.5t31 13.5q19 0 31.5 -13.5t12.5 -32.5v-423q0 -46 -11 -83.5t-36.5 -71t-74.5 -52.5t-119 -19zM440 764q0 -13 -9 -22.5t-22 -9.5 h-180q-13 0 -22 9.5t-9 22.5t9 22t22 9h180q13 0 22 -9t9 -22z" />
<glyph unicode="&#x16b;" horiz-adv-x="480" d="M240 -13q-57 0 -95.5 14.5t-58 42t-27.5 58t-8 70.5v251q0 17 11.5 28t27.5 11t27.5 -11t11.5 -28v-251q0 -111 111 -111t111 111v251q0 17 11.5 28t27.5 11t27.5 -11t11.5 -28v-251q0 -40 -8 -70.5t-27.5 -58t-58 -42t-95.5 -14.5zM368 562q0 -13 -9 -22.5t-22 -9.5 h-180q-13 0 -22 9.5t-9 22.5t9 22t22 9h180q13 0 22 -9t9 -22z" />
<glyph unicode="&#x16c;" horiz-adv-x="616" d="M310 -14q-240 0 -240 226v427q0 17 12.5 29.5t29.5 12.5t29.5 -12.5t12.5 -29.5v-427q0 -148 156 -148q153 0 153 148v423q0 19 13 32.5t31 13.5q19 0 31.5 -13.5t12.5 -32.5v-423q0 -46 -11 -83.5t-36.5 -71t-74.5 -52.5t-119 -19zM316 729q-55 0 -89.5 25.5t-34.5 78.5 q0 12 8.5 21t20.5 9t20.5 -9t8.5 -21q0 -47 66 -47q65 0 65 47q0 12 8.5 21t20.5 9t20.5 -9t8.5 -21q0 -53 -34.5 -78.5t-88.5 -25.5z" />
<glyph unicode="&#x16d;" horiz-adv-x="480" d="M240 -13q-57 0 -95.5 14.5t-58 42t-27.5 58t-8 70.5v251q0 17 11.5 28t27.5 11t27.5 -11t11.5 -28v-251q0 -111 111 -111t111 111v251q0 17 11.5 28t27.5 11t27.5 -11t11.5 -28v-251q0 -40 -8 -70.5t-27.5 -58t-58 -42t-95.5 -14.5zM243 526q-55 0 -89.5 25.5t-34.5 78.5 q0 12 8.5 21t20.5 9t20.5 -9t8.5 -21q0 -47 66 -47q65 0 65 47q0 12 8.5 21t20.5 9t20.5 -9t8.5 -21q0 -53 -34.5 -78.5t-88.5 -25.5z" />
<glyph unicode="&#x16e;" horiz-adv-x="616" d="M310 -14q-240 0 -240 226v427q0 17 12.5 29.5t29.5 12.5t29.5 -12.5t12.5 -29.5v-427q0 -148 156 -148q153 0 153 148v423q0 19 13 32.5t31 13.5q19 0 31.5 -13.5t12.5 -32.5v-423q0 -46 -11 -83.5t-36.5 -71t-74.5 -52.5t-119 -19zM319 746q56 0 56 55q0 54 -56 54 t-56 -54q0 -55 56 -55zM319 899q52 0 78 -25.5t26 -72.5t-26.5 -73t-77.5 -26t-77.5 26t-26.5 73t26 72.5t78 25.5z" />
<glyph unicode="&#x16f;" horiz-adv-x="480" d="M240 -13q-57 0 -95.5 14.5t-58 42t-27.5 58t-8 70.5v251q0 17 11.5 28t27.5 11t27.5 -11t11.5 -28v-251q0 -111 111 -111t111 111v251q0 17 11.5 28t27.5 11t27.5 -11t11.5 -28v-251q0 -40 -8 -70.5t-27.5 -58t-58 -42t-95.5 -14.5zM244 545q56 0 56 55q0 54 -56 54 t-56 -54q0 -55 56 -55zM244 698q52 0 78 -25.5t26 -72.5t-26.5 -73t-77.5 -26t-77.5 26t-26.5 73t26 72.5t78 25.5z" />
<glyph unicode="&#x170;" horiz-adv-x="616" d="M310 -14q-240 0 -240 226v427q0 17 12.5 29.5t29.5 12.5t29.5 -12.5t12.5 -29.5v-427q0 -148 156 -148q153 0 153 148v423q0 19 13 32.5t31 13.5q19 0 31.5 -13.5t12.5 -32.5v-423q0 -46 -11 -83.5t-36.5 -71t-74.5 -52.5t-119 -19zM215 723q-19 18 -4 37l88 108 q20 24 47 -1q27 -27 3 -49l-97 -94q-18 -17 -37 -1zM339 723q-21 18 -4 37l87 108q9 11 21.5 11t25.5 -12q27 -27 4 -49l-98 -94q-18 -18 -36 -1z" />
<glyph unicode="&#x171;" horiz-adv-x="480" d="M240 -13q-57 0 -95.5 14.5t-58 42t-27.5 58t-8 70.5v251q0 17 11.5 28t27.5 11t27.5 -11t11.5 -28v-251q0 -111 111 -111t111 111v251q0 17 11.5 28t27.5 11t27.5 -11t11.5 -28v-251q0 -40 -8 -70.5t-27.5 -58t-58 -42t-95.5 -14.5zM149 517q-19 18 -4 37l88 108 q20 24 47 -1q27 -27 3 -49l-97 -94q-18 -17 -37 -1zM273 517q-21 18 -4 37l87 108q9 11 21.5 11t25.5 -12q27 -27 4 -49l-98 -94q-18 -18 -36 -1z" />
<glyph unicode="&#x172;" horiz-adv-x="616" d="M462 -122q11 0 18 -7.5t7 -18.5q0 -37 -83 -37q-48 0 -78.5 21.5t-30.5 64.5q0 53 47 87q-20 -2 -32 -2q-240 0 -240 226v427q0 17 12.5 29.5t29.5 12.5t29.5 -12.5t12.5 -29.5v-427q0 -148 156 -148q153 0 153 148v423q0 19 13 32.5t31 13.5q19 0 31.5 -13.5t12.5 -32.5 v-423q0 -170 -138 -212q-62 -35 -62 -82q0 -49 58 -49h10q9 1 23 5t20 4z" />
<glyph unicode="&#x173;" horiz-adv-x="480" d="M378 -122q11 0 18 -7.5t7 -18.5q0 -37 -83 -37q-48 0 -78.5 21.5t-30.5 64.5q0 53 47 87q-6 -1 -18 -1q-57 0 -95.5 14.5t-58 42t-27.5 58t-8 70.5v251q0 17 11.5 28t27.5 11t27.5 -11t11.5 -28v-251q0 -111 111 -111t111 111v251q0 17 11.5 28t27.5 11t27.5 -11 t11.5 -28v-251q0 -139 -101 -172q-61 -34 -61 -82q0 -49 58 -49h10q9 1 23 5t20 4z" />
<glyph unicode="&#x174;" horiz-adv-x="824" d="M544 26l-132 465l-132 -465q-10 -34 -42 -34q-31 0 -41 31l-176 601q-2 10 -2 15q0 17 12.5 29.5t29.5 12.5q31 0 40 -29l139 -480l131 477q10 32 41 32t41 -32l131 -477l139 480q9 29 40 29q17 0 29.5 -12.5t12.5 -29.5q0 -5 -2 -15l-176 -601q-10 -31 -41 -31 q-32 0 -42 34zM489 724l-76 58l-76 -58q-9 -7 -20 -7q-13 0 -22 9t-9 22q0 16 14 26l94 70q9 7 19 7t19 -7l94 -70q14 -10 14 -26q0 -13 -9 -22t-22 -9q-11 0 -20 7z" />
<glyph unicode="&#x175;" horiz-adv-x="638" d="M401 22l-82 280l-82 -280q-9 -30 -38 -30q-28 0 -38 28l-143 385q-4 11 -4 18q0 17 11 28t28 11q27 0 36 -24l108 -307l86 303q8 28 36 28t36 -28l86 -303l108 307q9 24 36 24q17 0 28 -11t11 -28q0 -7 -4 -18l-143 -385q-10 -28 -38 -28q-29 0 -38 30zM395 526l-76 58 l-76 -58q-9 -7 -20 -7q-13 0 -22 9t-9 22q0 16 14 26l94 70q9 7 19 7t19 -7l94 -70q14 -10 14 -26q0 -13 -9 -22t-22 -9q-11 0 -20 7z" />
<glyph unicode="&#x176;" horiz-adv-x="528" d="M306 310v-276q0 -17 -12.5 -29.5t-29.5 -12.5t-29.5 12.5t-12.5 29.5v276l-197 307q-6 11 -6 22q0 17 12.5 29.5t29.5 12.5q23 0 39 -25l164 -266l164 266q16 25 39 25q17 0 29.5 -12.5t12.5 -29.5q0 -11 -6 -22zM342 724l-76 58l-76 -58q-9 -7 -20 -7q-13 0 -22 9t-9 22 q0 16 14 26l94 70q9 7 19 7t19 -7l94 -70q14 -10 14 -26q0 -13 -9 -22t-22 -9q-11 0 -20 7z" />
<glyph unicode="&#x177;" horiz-adv-x="437" d="M38 -123q53 0 80.5 33.5t60.5 114.5l-161 380q-4 8 -4 18q0 17 11 28t28 11q26 0 38 -28l128 -316l128 316q12 28 38 28q17 0 28 -11t11 -28q0 -10 -4 -18l-191 -448q-34 -79 -78 -118.5t-113 -39.5q-16 0 -27.5 11.5t-11.5 27.5t11.5 27.5t27.5 11.5zM297 526l-76 58 l-76 -58q-9 -7 -20 -7q-13 0 -22 9t-9 22q0 16 14 26l94 70q9 7 19 7t19 -7l94 -70q14 -10 14 -26q0 -13 -9 -22t-22 -9q-11 0 -20 7z" />
<glyph unicode="&#x178;" horiz-adv-x="528" d="M306 310v-276q0 -17 -12.5 -29.5t-29.5 -12.5t-29.5 12.5t-12.5 29.5v276l-197 307q-6 11 -6 22q0 17 12.5 29.5t29.5 12.5q23 0 39 -25l164 -266l164 266q16 25 39 25q17 0 29.5 -12.5t12.5 -29.5q0 -11 -6 -22zM180 740q-42 0 -42 44q0 46 42 46q43 0 43 -46 q0 -44 -43 -44zM348 740q-43 0 -43 44q0 46 43 46q42 0 42 -46q0 -44 -42 -44z" />
<glyph unicode="&#x179;" horiz-adv-x="525" d="M471 0h-414q-17 0 -29 12t-12 29q0 14 8 25l358 525h-304q-17 0 -29 12t-12 29t12 29t29 12h379q17 0 29 -12t12 -29q0 -13 -7 -24l-357 -526h337q17 0 29 -12t12 -29t-12 -29t-29 -12zM222 723q-21 18 -4 37l87 108q9 11 21.5 11t25.5 -12q26 -27 4 -49l-98 -94 q-18 -18 -36 -1z" />
<glyph unicode="&#x17a;" horiz-adv-x="407" d="M35 418q0 15 10.5 25.5t25.5 10.5h268q15 0 25.5 -10.5t10.5 -25.5q0 -12 -8 -23l-238 -321h215q15 0 26 -11t11 -26t-11 -26t-26 -11h-284q-15 0 -26 11t-11 26q0 12 8 23l238 322h-198q-15 0 -25.5 10.5t-10.5 25.5zM153 517q-21 18 -4 37l87 108q9 11 21.5 11 t25.5 -12q27 -27 4 -49l-98 -94q-18 -18 -36 -1z" />
<glyph unicode="&#x17b;" horiz-adv-x="525" d="M471 0h-414q-17 0 -29 12t-12 29q0 14 8 25l358 525h-304q-17 0 -29 12t-12 29t12 29t29 12h379q17 0 29 -12t12 -29q0 -13 -7 -24l-357 -526h337q17 0 29 -12t12 -29t-12 -29t-29 -12zM268 732q-45 0 -45 45q0 47 45 47q44 0 44 -47q0 -45 -44 -45z" />
<glyph unicode="&#x17c;" horiz-adv-x="407" d="M35 418q0 15 10.5 25.5t25.5 10.5h268q15 0 25.5 -10.5t10.5 -25.5q0 -12 -8 -23l-238 -321h215q15 0 26 -11t11 -26t-11 -26t-26 -11h-284q-15 0 -26 11t-11 26q0 12 8 23l238 322h-198q-15 0 -25.5 10.5t-10.5 25.5zM209 540q-45 0 -45 45q0 47 45 47q44 0 44 -47 q0 -45 -44 -45z" />
<glyph unicode="&#x17d;" horiz-adv-x="525" d="M471 0h-414q-17 0 -29 12t-12 29q0 14 8 25l358 525h-304q-17 0 -29 12t-12 29t12 29t29 12h379q17 0 29 -12t12 -29q0 -13 -7 -24l-357 -526h337q17 0 29 -12t12 -29t-12 -29t-29 -12zM273 785l76 58q9 7 20 7q13 0 22 -9t9 -22q0 -16 -14 -26l-94 -70q-9 -7 -19 -7 t-19 7l-94 70q-14 10 -14 26q0 13 9 22t22 9q11 0 20 -7z" />
<glyph unicode="&#x17e;" horiz-adv-x="407" d="M35 418q0 15 10.5 25.5t25.5 10.5h268q15 0 25.5 -10.5t10.5 -25.5q0 -12 -8 -23l-238 -321h215q15 0 26 -11t11 -26t-11 -26t-26 -11h-284q-15 0 -26 11t-11 26q0 12 8 23l238 322h-198q-15 0 -25.5 10.5t-10.5 25.5zM208 576l76 58q9 7 20 7q13 0 22 -9t9 -22 q0 -16 -14 -26l-94 -70q-9 -7 -19 -7t-19 7l-94 70q-14 10 -14 26q0 13 9 22t22 9q11 0 20 -7z" />
<glyph unicode="&#x17f;" horiz-adv-x="245" d="M84 382h-29q-15 0 -25.5 10.5t-10.5 25.5t10.5 25.5t25.5 10.5h29v56q0 75 44 125t132 50q16 0 27 -11t11 -27t-11 -27t-27 -11q-49 0 -73.5 -26t-24.5 -69v-483q0 -17 -11 -28t-28 -11t-28 11t-11 28v351z" />
<glyph unicode="&#x192;" horiz-adv-x="439" d="M442 630q0 -14 -10 -24t-24 -10q-7 0 -28 8.5t-45 8.5q-38 0 -58.5 -24t-29.5 -73l-22 -118h83q15 0 25.5 -10.5t10.5 -25.5t-10.5 -25.5t-25.5 -10.5h-94q-42 -218 -61 -327q-17 -95 -67 -147.5t-133 -52.5q-57 0 -83 14q-20 11 -20 33q0 15 11 26t26 11q7 0 28 -4.5 t36 -4.5q49 0 80 32t41 89q9 52 29 162.5t30 168.5h-51q-15 0 -25.5 10.5t-10.5 25.5t10.5 25.5t25.5 10.5h64l21 115q32 174 170 174q70 0 99 -35q8 -10 8 -22z" />
<glyph unicode="&#x1e2;" horiz-adv-x="850" d="M251 269h151v236zM445 673h313q17 0 29 -12t12 -29t-12 -29t-29 -12h-272v-212h207q17 0 28.5 -11.5t11.5 -28.5t-11.5 -28.5t-28.5 -11.5h-207v-217h283q17 0 29 -12t12 -29t-12 -29t-29 -12h-325q-17 0 -29.5 12.5t-12.5 29.5v147h-198l-112 -178q-13 -19 -35 -19 q-17 0 -29.5 12.5t-12.5 29.5q0 13 8 26l386 592q13 21 36 21zM663 768q0 -13 -9 -22.5t-22 -9.5h-180q-13 0 -22 9.5t-9 22.5t9 22t22 9h180q13 0 22 -9t9 -22z" />
<glyph unicode="&#x1e3;" horiz-adv-x="770" d="M208 57q52 0 90.5 31.5t38.5 82.5v39h-125q-101 0 -101 -75q0 -35 25 -56.5t72 -21.5zM555 -13q-136 0 -179 90q-52 -90 -176 -90q-76 0 -122 40t-46 108q0 65 47 102t123 37h135v22q0 44 -28 72t-79 28q-37 0 -61.5 -11t-49.5 -36q-14 -14 -30 -14q-14 0 -24 9.5 t-10 24.5t12 30q58 69 163 69q110 0 157 -69q54 69 158 69q58 0 99 -21.5t60 -56t27 -65.5t8 -61q0 -65 -54 -65h-267q0 -64 37 -99t100 -35q60 0 109 36q12 9 25 9q16 0 27 -11t11 -27t-13 -29q-60 -56 -159 -56zM545 396q-57 0 -89 -33.5t-37 -91.5h240q0 52 -27 88.5 t-87 36.5zM506 571q0 -13 -9 -22.5t-22 -9.5h-180q-13 0 -22 9.5t-9 22.5t9 22t22 9h180q13 0 22 -9t9 -22z" />
<glyph unicode="&#x1fa;" horiz-adv-x="619" d="M309 833q52 0 78 -25.5t26 -72.5q0 -73 -60 -93l238 -593q3 -7 3 -15q0 -17 -12.5 -29.5t-29.5 -12.5q-28 0 -39 27l-69 170h-270l-69 -170q-11 -27 -39 -27q-17 0 -29.5 12.5t-12.5 29.5q0 8 3 15l238 593q-60 19 -60 93q0 47 26 72.5t78 25.5zM417 269l-108 281 l-108 -281h216zM309 680q56 0 56 55q0 54 -56 54t-56 -54q0 -55 56 -55zM242 861q-21 18 -4 37l87 108q9 11 21.5 11t25.5 -12q26 -27 4 -49l-98 -94q-18 -18 -36 -1z" />
<glyph unicode="&#x1fb;" horiz-adv-x="464" d="M208 57q52 0 90.5 31.5t38.5 82.5v39h-125q-101 0 -101 -75q0 -35 25 -56.5t72 -21.5zM230 468q89 0 137 -45t48 -125v-266q0 -17 -11.5 -28t-27.5 -11q-17 0 -28 11t-11 28v20q-38 -65 -139 -65q-76 0 -121 40t-45 108q0 65 47 102t123 37h135v22q0 44 -28 72t-79 28 q-37 0 -61.5 -11t-49.5 -36q-14 -14 -30 -14q-14 0 -24 9.5t-10 24.5t12 30q58 69 163 69zM232 533q56 0 56 55q0 54 -56 54t-56 -54q0 -55 56 -55zM232 686q52 0 78 -25.5t26 -72.5t-26.5 -73t-77.5 -26t-77.5 26t-26.5 73t26 72.5t78 25.5zM165 709q-21 18 -4 37l87 108 q9 11 21.5 11t25.5 -12q27 -27 4 -49l-98 -94q-18 -18 -36 -1z" />
<glyph unicode="&#x1fc;" horiz-adv-x="850" d="M251 269h151v236zM445 673h313q17 0 29 -12t12 -29t-12 -29t-29 -12h-272v-212h207q17 0 28.5 -11.5t11.5 -28.5t-11.5 -28.5t-28.5 -11.5h-207v-217h283q17 0 29 -12t12 -29t-12 -29t-29 -12h-325q-17 0 -29.5 12.5t-12.5 29.5v147h-198l-112 -178q-13 -19 -35 -19 q-17 0 -29.5 12.5t-12.5 29.5q0 13 8 26l386 592q13 21 36 21zM508 723q-21 18 -4 37l87 108q9 11 21.5 11t25.5 -12q26 -27 4 -49l-98 -94q-18 -18 -36 -1z" />
<glyph unicode="&#x1fd;" horiz-adv-x="772" d="M208 57q52 0 90.5 31.5t38.5 82.5v39h-125q-101 0 -101 -75q0 -35 25 -56.5t72 -21.5zM555 -13q-136 0 -179 90q-52 -90 -176 -90q-76 0 -122 40t-46 108q0 65 47 102t123 37h135v22q0 44 -28 72t-79 28q-37 0 -61.5 -11t-49.5 -36q-14 -14 -30 -14q-14 0 -24 9.5 t-10 24.5t12 30q58 69 163 69q110 0 157 -69q54 69 158 69q58 0 99 -21.5t60 -56t27 -65.5t8 -61q0 -65 -54 -65h-267q0 -64 37 -99t100 -35q60 0 109 36q12 9 25 9q16 0 27 -11t11 -27t-13 -29q-60 -56 -159 -56zM545 396q-57 0 -89 -33.5t-37 -91.5h240q0 52 -27 88.5 t-87 36.5zM330 526q-21 18 -4 37l87 108q9 11 21.5 11t25.5 -12q26 -26 4 -49l-98 -94q-18 -18 -36 -1z" />
<glyph unicode="&#x1fe;" horiz-adv-x="698" d="M349 -14q-118 0 -193 54l-42 -53q-10 -13 -26 -13q-14 0 -24 10.5t-10 24.5q0 12 9 23l44 56q-68 90 -68 248q0 175 80 263t230 88q119 0 193 -55l41 51q11 13 26 13q14 0 24.5 -10.5t10.5 -25.5q0 -11 -8 -21l-45 -56q68 -88 68 -247q0 -174 -80 -262t-230 -88zM349 609 q-110 0 -167 -69t-57 -204q0 -111 39 -177l325 407q-55 43 -140 43zM573 336q0 107 -39 176l-325 -406q54 -42 140 -42q110 0 167 69t57 203zM298 723q-21 18 -4 37l87 108q9 11 21.5 11t25.5 -12q26 -27 4 -49l-98 -94q-18 -18 -36 -1z" />
<glyph unicode="&#x1ff;" d="M455 227q0 -120 -55 -180t-156 -60q-89 0 -141 46l-30 -32q-9 -9 -23 -9q-13 0 -22 9.5t-9 23.5t9 23l35 37q-29 55 -29 142q0 121 54.5 181t155.5 60q86 0 139 -45l33 35q10 10 23 10t22.5 -9.5t9.5 -23.5t-9 -23l-38 -40q31 -57 31 -145zM375 227q0 46 -11 82 l-207 -220q31 -30 87 -30q131 0 131 168zM114 227q0 -45 9 -78l207 218q-34 29 -86 29q-130 0 -130 -169zM200 517q-21 18 -4 37l87 108q9 11 21.5 11t25.5 -12q26 -27 4 -49l-98 -94q-18 -18 -36 -1z" />
<glyph unicode="&#x218;" horiz-adv-x="560" d="M437 538q-63 71 -154 71q-67 0 -98.5 -29t-31.5 -70q0 -43 37.5 -70t91 -43.5t107 -37.5t91 -65t37.5 -112q0 -94 -60.5 -145t-177.5 -51q-81 0 -146.5 35.5t-94.5 86.5q-5 10 -5 20q0 17 11.5 29t28.5 12q20 0 34 -17q71 -88 172 -88q76 0 115 30.5t39 87.5q0 41 -27 69 t-67.5 42t-87.5 31.5t-87.5 36t-67.5 57t-27 92.5q0 77 53 127t161 50q72 0 129 -26t88 -72q8 -11 8 -25q0 -17 -12 -28.5t-29 -11.5t-30 14zM289 -41q47 0 47 -55q0 -101 -69 -163q-7 -5 -12 -5q-6 0 -10.5 4.5t-4.5 11.5q0 6 5 11q30 32 30 69q0 16 -16.5 39t-16.5 40 q0 48 47 48z" />
<glyph unicode="&#x219;" horiz-adv-x="424" d="M209 397q-35 0 -57 -15t-22 -41t26 -43t63.5 -28.5t75 -26t63.5 -44.5t26 -74q0 -67 -47 -102.5t-124 -35.5q-58 0 -104.5 22t-69.5 50q-9 13 -9 25q0 16 11 27t27 11q15 0 26 -10q54 -50 119 -50q93 0 93 60q0 27 -26 44.5t-63.5 29t-75 25.5t-63.5 44t-26 75 q0 62 44 95t113 33q109 0 156 -62q8 -12 8 -23q0 -16 -11 -26.5t-26 -10.5q-14 0 -26 11q-48 40 -101 40zM213 -41q47 0 47 -55q0 -101 -69 -163q-7 -5 -12 -5q-6 0 -10.5 4.5t-4.5 11.5q0 6 5 11q30 32 30 69q0 16 -16.5 39t-16.5 40q0 48 47 48z" />
<glyph unicode="&#x237;" horiz-adv-x="198" d="M138 423v-445q0 -66 -41 -110t-106 -44q-17 0 -28 11t-11 28t11 28t28 11q30 0 49.5 22.5t19.5 53.5v445q0 17 11 28t28 11t28 -11t11 -28z" />
<glyph unicode="&#x2c6;" horiz-adv-x="334" d="M243 526l-76 58l-76 -58q-9 -7 -20 -7q-13 0 -22 9t-9 22q0 16 14 26l94 70q9 7 19 7t19 -7l94 -70q14 -10 14 -26q0 -13 -9 -22t-22 -9q-11 0 -20 7z" />
<glyph unicode="&#x2c7;" horiz-adv-x="332" d="M167 576l76 58q9 7 20 7q13 0 22 -9t9 -22q0 -16 -14 -26l-94 -70q-9 -7 -19 -7t-19 7l-94 70q-14 10 -14 26q0 13 9 22t22 9q11 0 20 -7z" />
<glyph unicode="&#x2d8;" horiz-adv-x="320" d="M160 526q-55 0 -89.5 25.5t-34.5 78.5q0 12 8.5 21t20.5 9t20.5 -9t8.5 -21q0 -47 66 -47q65 0 65 47q0 12 8.5 21t20.5 9t20.5 -9t8.5 -21q0 -53 -34.5 -78.5t-88.5 -25.5z" />
<glyph unicode="&#x2d9;" horiz-adv-x="282" d="M141 540q-45 0 -45 45q0 47 45 47q44 0 44 -47q0 -45 -44 -45z" />
<glyph unicode="&#x2da;" horiz-adv-x="271" d="M135 545q56 0 56 55q0 54 -56 54t-56 -54q0 -55 56 -55zM135 698q52 0 78 -25.5t26 -72.5t-26.5 -73t-77.5 -26t-77.5 26t-26.5 73t26 72.5t78 25.5z" />
<glyph unicode="&#x2db;" horiz-adv-x="313" d="M231 -122q11 0 18 -7.5t7 -18.5q0 -37 -83 -37q-48 0 -78.5 21.5t-30.5 64.5q0 32 19 58.5t50 40.5h49q-62 -35 -62 -82q0 -49 58 -49h10q9 1 23 5t20 4z" />
<glyph unicode="&#x2dc;" horiz-adv-x="384" d="M251 588q20 0 38 22q10 14 25 14q13 0 22 -9t9 -22q0 -8 -3 -14q-24 -52 -87 -52q-28 0 -66.5 18t-55.5 18q-22 0 -38 -22q-10 -14 -26 -14q-12 0 -21 9.5t-9 22.5q0 8 3 14q25 52 87 52q28 0 66 -18.5t56 -18.5z" />
<glyph unicode="&#x2dd;" horiz-adv-x="497" d="M119 517q-19 18 -4 37l88 108q20 24 47 -1q27 -27 3 -49l-97 -94q-17 -17 -37 -1zM243 517q-21 18 -4 37l87 108q9 11 21.5 11t25.5 -12q27 -27 4 -49l-98 -94q-18 -18 -36 -1z" />
<glyph unicode="&#x1e80;" horiz-adv-x="824" d="M544 26l-132 465l-132 -465q-10 -34 -42 -34q-31 0 -41 31l-176 601q-2 10 -2 15q0 17 12.5 29.5t29.5 12.5q31 0 40 -29l139 -480l131 477q10 32 41 32t41 -32l131 -477l139 480q9 29 40 29q17 0 29.5 -12.5t12.5 -29.5q0 -5 -2 -15l-176 -601q-10 -31 -41 -31 q-32 0 -42 34zM479 723q-18 -17 -36 1l-98 94q-23 22 4 49q13 12 25.5 12t21.5 -11l87 -108q17 -19 -4 -37z" />
<glyph unicode="&#x1e81;" horiz-adv-x="638" d="M401 22l-82 280l-82 -280q-9 -30 -38 -30q-28 0 -38 28l-143 385q-4 11 -4 18q0 17 11 28t28 11q27 0 36 -24l108 -307l86 303q8 28 36 28t36 -28l86 -303l108 307q9 24 36 24q17 0 28 -11t11 -28q0 -7 -4 -18l-143 -385q-10 -28 -38 -28q-29 0 -38 30zM391 517 q-18 -17 -36 1l-98 94q-23 22 4 49q13 12 25.5 12t21.5 -11l87 -108q17 -19 -4 -37z" />
<glyph unicode="&#x1e82;" horiz-adv-x="824" d="M544 26l-132 465l-132 -465q-10 -34 -42 -34q-31 0 -41 31l-176 601q-2 10 -2 15q0 17 12.5 29.5t29.5 12.5q31 0 40 -29l139 -480l131 477q10 32 41 32t41 -32l131 -477l139 480q9 29 40 29q17 0 29.5 -12.5t12.5 -29.5q0 -5 -2 -15l-176 -601q-10 -31 -41 -31 q-32 0 -42 34zM348 723q-21 18 -4 37l87 108q9 11 21.5 11t25.5 -12q26 -27 4 -49l-98 -94q-18 -18 -36 -1z" />
<glyph unicode="&#x1e83;" horiz-adv-x="638" d="M401 22l-82 280l-82 -280q-9 -30 -38 -30q-28 0 -38 28l-143 385q-4 11 -4 18q0 17 11 28t28 11q27 0 36 -24l108 -307l86 303q8 28 36 28t36 -28l86 -303l108 307q9 24 36 24q17 0 28 -11t11 -28q0 -7 -4 -18l-143 -385q-10 -28 -38 -28q-29 0 -38 30zM263 517 q-21 18 -4 37l87 108q9 11 21.5 11t25.5 -12q27 -27 4 -49l-98 -94q-18 -18 -36 -1z" />
<glyph unicode="&#x1e84;" horiz-adv-x="824" d="M544 26l-132 465l-132 -465q-10 -34 -42 -34q-31 0 -41 31l-176 601q-2 10 -2 15q0 17 12.5 29.5t29.5 12.5q31 0 40 -29l139 -480l131 477q10 32 41 32t41 -32l131 -477l139 480q9 29 40 29q17 0 29.5 -12.5t12.5 -29.5q0 -5 -2 -15l-176 -601q-10 -31 -41 -31 q-32 0 -42 34zM329 740q-42 0 -42 44q0 46 42 46q43 0 43 -46q0 -44 -43 -44zM497 740q-43 0 -43 44q0 46 43 46q42 0 42 -46q0 -44 -42 -44z" />
<glyph unicode="&#x1e85;" horiz-adv-x="638" d="M401 22l-82 280l-82 -280q-9 -30 -38 -30q-28 0 -38 28l-143 385q-4 11 -4 18q0 17 11 28t28 11q27 0 36 -24l108 -307l86 303q8 28 36 28t36 -28l86 -303l108 307q9 24 36 24q17 0 28 -11t11 -28q0 -7 -4 -18l-143 -385q-10 -28 -38 -28q-29 0 -38 30zM234 527 q-42 0 -42 44q0 46 42 46q43 0 43 -46q0 -44 -43 -44zM402 527q-43 0 -43 44q0 46 43 46q42 0 42 -46q0 -44 -42 -44z" />
<glyph unicode="&#x1ef2;" horiz-adv-x="528" d="M306 310v-276q0 -17 -12.5 -29.5t-29.5 -12.5t-29.5 12.5t-12.5 29.5v276l-197 307q-6 11 -6 22q0 17 12.5 29.5t29.5 12.5q23 0 39 -25l164 -266l164 266q16 25 39 25q17 0 29.5 -12.5t12.5 -29.5q0 -11 -6 -22zM317 723q-18 -17 -36 1l-98 94q-23 22 4 49 q13 12 25.5 12t21.5 -11l87 -108q17 -19 -4 -37z" />
<glyph unicode="&#x1ef3;" horiz-adv-x="437" d="M38 -123q53 0 80.5 33.5t60.5 114.5l-161 380q-4 8 -4 18q0 17 11 28t28 11q26 0 38 -28l128 -316l128 316q12 28 38 28q17 0 28 -11t11 -28q0 -10 -4 -18l-191 -448q-34 -79 -78 -118.5t-113 -39.5q-16 0 -27.5 11.5t-11.5 27.5t11.5 27.5t27.5 11.5zM265 517 q-18 -17 -36 1l-98 94q-23 22 4 49q13 12 25.5 12t21.5 -11l87 -108q17 -19 -4 -37z" />
<glyph unicode="&#x2009;" horiz-adv-x="14" />
<glyph unicode="&#x2013;" horiz-adv-x="578" d="M483 282q0 -15 -10.5 -26t-24.5 -11h-318q-14 0 -24.5 11t-10.5 26t10.5 25.5t24.5 10.5h318q14 0 24.5 -10.5t10.5 -25.5z" />
<glyph unicode="&#x2014;" horiz-adv-x="902" d="M807 282q0 -15 -10.5 -26t-24.5 -11h-642q-14 0 -24.5 11t-10.5 26t10.5 25.5t24.5 10.5h642q14 0 24.5 -10.5t10.5 -25.5z" />
<glyph unicode="&#x2018;" horiz-adv-x="174" d="M85 409q-56 0 -56 65q0 61 24 116t62 85q7 6 15 6q7 0 12.5 -5t5.5 -13q0 -7 -5 -13q-21 -28 -30 -47t-9 -45q0 -19 18 -45.5t18 -46.5q0 -57 -55 -57z" />
<glyph unicode="&#x2019;" horiz-adv-x="174" d="M89 681q56 0 56 -65q0 -61 -24 -116t-62 -85q-8 -6 -15 -6t-12.5 5t-5.5 13q0 7 5 13q21 28 30 47t9 45q0 19 -18 45.5t-18 46.5q0 57 55 57z" />
<glyph unicode="&#x201a;" horiz-adv-x="196" d="M91 105q56 0 56 -65q0 -61 -24 -116t-62 -85q-7 -6 -15 -6q-7 0 -12.5 5t-5.5 13q0 7 5 13q21 28 30 47t9 45q0 19 -18 45.5t-18 46.5q0 57 55 57z" />
<glyph unicode="&#x201c;" horiz-adv-x="322" d="M85 409q-56 0 -56 65q0 61 24 116t62 85q7 6 15 6q7 0 12.5 -5t5.5 -13q0 -7 -5 -13q-21 -28 -30 -47t-9 -45q0 -19 18 -45.5t18 -46.5q0 -57 -55 -57zM233 409q-56 0 -56 65q0 61 24 116t62 85q7 6 15 6q7 0 12.5 -5t5.5 -13q0 -7 -5 -13q-21 -28 -30 -47t-9 -45 q0 -19 18 -45.5t18 -46.5q0 -57 -55 -57z" />
<glyph unicode="&#x201d;" horiz-adv-x="322" d="M237 681q56 0 56 -65q0 -61 -24 -116t-62 -85q-7 -6 -15 -6q-7 0 -12.5 5t-5.5 13q0 7 5 13q21 28 30 47t9 45q0 19 -18 45.5t-18 46.5q0 57 55 57zM89 681q56 0 56 -65q0 -61 -24 -116t-62 -85q-8 -6 -15 -6t-12.5 5t-5.5 13q0 7 5 13q21 28 30 47t9 45q0 19 -18 45.5 t-18 46.5q0 57 55 57z" />
<glyph unicode="&#x201e;" horiz-adv-x="342" d="M237 105q56 0 56 -65q0 -61 -24 -116t-62 -85q-7 -6 -15 -6q-7 0 -12.5 5t-5.5 13q0 7 5 13q21 28 30 47t9 45q0 19 -18 45.5t-18 46.5q0 57 55 57zM89 105q56 0 56 -65q0 -61 -24 -116t-62 -85q-8 -6 -15 -6t-12.5 5t-5.5 13q0 7 5 13q21 28 30 47t9 45q0 19 -18 45.5 t-18 46.5q0 57 55 57z" />
<glyph unicode="&#x2020;" horiz-adv-x="445" d="M222 -150q-28 0 -28 27l-5 569h-101q-29 0 -29 35t29 35h101l-3 161q0 35 36 35q37 0 37 -35l-2 -161h100q29 0 29 -35t-29 -35h-100l-7 -569q0 -27 -28 -27z" />
<glyph unicode="&#x2021;" horiz-adv-x="445" d="M188 446h-100q-30 0 -30 35t30 35h100l-2 161q0 35 36 35t36 -35l-2 -161h100q29 0 29 -35t-29 -35h-100q-2 -128 -4 -190q2 -62 4 -190h100q29 0 29 -35t-29 -35h-100l2 -161q0 -35 -36 -35t-36 35l2 161h-100q-30 0 -30 35t30 35h100l5 190z" />
<glyph unicode="&#x2022;" horiz-adv-x="418" d="M209 149q-130 0 -130 130q0 136 130 136t130 -136q0 -130 -130 -130z" />
<glyph unicode="&#x2030;" horiz-adv-x="1095" d="M188 426q84 0 84 98t-84 98q-82 0 -82 -98t82 -98zM188 687q79 0 115 -44.5t36 -118.5t-36 -118.5t-115 -44.5q-78 0 -113.5 44.5t-35.5 118.5t35.5 118.5t113.5 44.5zM564 52q83 0 83 98t-83 98q-82 0 -82 -98t82 -98zM564 313q79 0 115 -44.5t36 -118.5t-36 -118.5 t-115 -44.5q-78 0 -113.5 44.5t-35.5 118.5t35.5 118.5t113.5 44.5zM535 681q14 0 24.5 -10.5t10.5 -25.5q0 -7 -4 -15l-321 -620q-8 -18 -30 -18q-14 0 -24 10t-10 25q0 10 3 16l321 619q8 19 30 19zM906 52q83 0 83 98t-83 98q-82 0 -82 -98t82 -98zM906 313 q79 0 114.5 -44.5t35.5 -118.5t-36 -118.5t-114 -44.5t-113.5 44.5t-35.5 118.5q0 163 149 163z" />
<glyph unicode="&#x2039;" horiz-adv-x="350" d="M64 212q0 13 9 22l159 185q10 12 23 12q12 0 21 -9.5t9 -22.5q0 -12 -8 -21l-148 -166l148 -167q8 -9 8 -21q0 -13 -9 -22t-21 -9q-13 0 -23 12l-159 184q-9 11 -9 23z" />
<glyph unicode="&#x203a;" horiz-adv-x="350" d="M286 212q0 -10 -9 -23l-159 -184q-10 -12 -23 -12t-21.5 9t-8.5 22q0 12 8 21l148 167l-148 166q-8 9 -8 21q0 13 8.5 22.5t21.5 9.5t23 -12l159 -185q9 -11 9 -22z" />
<glyph unicode="&#x2044;" horiz-adv-x="318" d="M8 39l241 620q7 22 30 22q14 0 24 -10t10 -24q0 -4 -4 -16l-240 -617q-2 -8 -9.5 -15t-20.5 -7q-14 0 -24 10t-10 24q0 6 3 13z" />
<glyph unicode="&#x2070;" horiz-adv-x="298" d="M149 475q65 0 65 99q0 100 -65 100q-64 0 -64 -100q0 -99 64 -99zM149 419q-127 0 -127 155q0 156 127 156t127 -156q0 -155 -127 -155z" />
<glyph unicode="&#x2074;" horiz-adv-x="268" d="M210 541h15q10 0 19 -8.5t9 -19.5t-8.5 -19.5t-19.5 -8.5h-15v-32q0 -12 -9 -21.5t-22 -9.5q-12 0 -21 9t-9 22v32h-106q-9 0 -18 9t-9 20q0 10 6 18l132 181q11 13 24 13q12 0 22 -9t10 -22v-154zM90 541h59v82z" />
<glyph unicode="&#x2075;" horiz-adv-x="266" d="M132 624q48 0 80 -24t32 -77q0 -51 -31.5 -78t-83.5 -27q-33 0 -60.5 14.5t-41.5 33.5q-9 12 -9 22q0 11 8 18.5t19 7.5t20 -9q29 -31 64 -31q27 0 41.5 13.5t14.5 35.5t-14.5 35.5t-41.5 13.5q-21 0 -43.5 -9t-30.5 -9q-11 0 -19 7.5t-8 19.5q0 8 2 16l18 100 q2 10 9.5 17.5t18.5 7.5h129q12 0 20.5 -8.5t8.5 -20.5q0 -11 -8.5 -19.5t-20.5 -8.5h-110l-9 -48q16 7 46 7z" />
<glyph unicode="&#x2076;" horiz-adv-x="279" d="M150 621q46 0 75.5 -26.5t29.5 -71.5q0 -51 -31.5 -77.5t-82.5 -26.5q-117 0 -117 149q0 83 33.5 122.5t90.5 39.5q50 0 77 -22q10 -9 10 -22q0 -12 -7.5 -20t-18.5 -8q-7 0 -18 6q-22 11 -42 11q-27 0 -46 -20.5t-19 -60.5q23 27 66 27zM140 474q54 0 54 50 q0 20 -14.5 32.5t-38.5 12.5q-17 0 -32.5 -9.5t-22.5 -25.5q0 -60 54 -60z" />
<glyph unicode="&#x2077;" horiz-adv-x="246" d="M53 451q0 41 17.5 76t38 54.5t38 42t17.5 41.5h-121q-12 0 -20 8t-8 20t8 20.5t20 8.5h158q11 0 19.5 -8.5t8.5 -20.5q0 -34 -12 -61t-29 -45.5t-34 -36t-29 -43t-12 -56.5q0 -13 -8.5 -22t-20.5 -9q-13 0 -22 9t-9 22z" />
<glyph unicode="&#x2078;" horiz-adv-x="273" d="M136 419q-55 0 -85 24.5t-30 70.5q0 51 48 73q-38 16 -38 59q0 41 29 62.5t76 21.5t76 -21.5t29 -62.5q0 -43 -38 -59q49 -22 49 -73q0 -46 -30.5 -70.5t-85.5 -24.5zM136 677q-44 0 -44 -33t44 -33q45 0 45 33t-45 33zM136 558q-53 0 -53 -42q0 -41 53 -41q54 0 54 41 q0 42 -54 42z" />
<glyph unicode="&#x2079;" horiz-adv-x="279" d="M129 528q-47 0 -76 26t-29 72q0 51 31.5 77.5t82.5 26.5q60 0 88.5 -40.5t28.5 -109.5q0 -82 -33.5 -121.5t-90.5 -39.5q-51 0 -77 21q-11 9 -11 23q0 11 8 19t19 8q6 0 18 -5q22 -11 42 -11q27 0 46 20.5t19 60.5q-23 -27 -66 -27zM139 675q-54 0 -54 -50 q0 -20 14.5 -33t38.5 -13q17 0 32.5 10t21.5 25q0 61 -53 61z" />
<glyph unicode="&#x2080;" horiz-adv-x="298" d="M149 -1q65 0 65 99q0 100 -65 100q-64 0 -64 -100q0 -99 64 -99zM149 -57q-127 0 -127 155q0 156 127 156t127 -156q0 -155 -127 -155z" />
<glyph unicode="&#x2081;" horiz-adv-x="209" d="M133 -52q-13 0 -22 9t-9 22v189l-30 -21q-8 -5 -18 -5q-11 0 -20 9t-9 21q0 17 14 25l77 50q8 6 17 6q12 0 21.5 -9.5t9.5 -22.5v-242q0 -13 -9.5 -22t-21.5 -9z" />
<glyph unicode="&#x2082;" horiz-adv-x="276" d="M39 206q12 21 38 34.5t59 13.5q51 0 81.5 -25t30.5 -67q0 -33 -24.5 -58.5t-54 -38.5t-54 -29t-24.5 -31h130q11 0 19 -8.5t8 -19.5q0 -12 -8 -20t-19 -8h-167q-12 0 -20.5 8.5t-8.5 21.5q0 33 16.5 58.5t40 40t47.5 26.5t40.5 26t16.5 32q0 16 -13 26t-37 10 q-31 0 -55 -28q-9 -9 -20 -9t-19 8t-8 20q0 8 5 17z" />
<glyph unicode="&#x2083;" horiz-adv-x="265" d="M157 137q42 0 63.5 -29t21.5 -64q0 -47 -29.5 -74t-88.5 -27q-37 0 -63.5 16t-39.5 36q-5 9 -5 18q0 11 7.5 19t18.5 8q13 0 22 -11q23 -31 60 -31q57 0 57 46q0 43 -51 43h-22q-11 0 -18.5 8t-7.5 19q0 10 8 21l54 56h-89q-12 0 -20 8t-8 20t8 20.5t20 8.5h143 q11 0 19.5 -8.5t8.5 -20.5t-9 -21z" />
<glyph unicode="&#x2084;" horiz-adv-x="268" d="M210 67h15q10 0 19 -8.5t9 -19.5t-8.5 -19.5t-19.5 -8.5h-15v-31q0 -13 -9 -22.5t-22 -9.5q-12 0 -21 9.5t-9 22.5v31h-106q-9 0 -18 9t-9 20q0 10 6 18l132 181q10 14 25 14q13 0 22 -9.5t9 -22.5v-154zM90 67h59v82z" />
<glyph unicode="&#x2085;" horiz-adv-x="266" d="M132 148q48 0 80 -24t32 -77q0 -51 -31.5 -78t-83.5 -27q-33 0 -60.5 14.5t-41.5 33.5q-9 12 -9 22q0 11 8 18.5t19 7.5t20 -9q29 -31 64 -31q27 0 41.5 13.5t14.5 35.5t-14.5 35.5t-41.5 13.5q-21 0 -43.5 -9t-30.5 -9q-11 0 -19 7.5t-8 19.5q0 8 2 16l18 100 q2 10 9.5 17.5t18.5 7.5h129q12 0 20.5 -8.5t8.5 -20.5q0 -11 -8.5 -19.5t-20.5 -8.5h-110l-9 -48q16 7 46 7z" />
<glyph unicode="&#x2086;" horiz-adv-x="279" d="M150 145q46 0 75.5 -26.5t29.5 -71.5q0 -51 -31.5 -77.5t-82.5 -26.5q-117 0 -117 149q0 83 33.5 122.5t90.5 39.5q50 0 77 -22q10 -9 10 -22q0 -12 -7.5 -20t-18.5 -8q-7 0 -18 6q-22 11 -42 11q-27 0 -46 -20.5t-19 -60.5q23 27 66 27zM140 -2q54 0 54 50 q0 20 -14.5 32.5t-38.5 12.5q-17 0 -32.5 -9.5t-22.5 -25.5q0 -60 54 -60z" />
<glyph unicode="&#x2087;" horiz-adv-x="246" d="M53 -23q0 41 17.5 76t38 54.5t38 42t17.5 41.5h-121q-12 0 -20 8t-8 20t8 20.5t20 8.5h158q11 0 19.5 -8.5t8.5 -20.5q0 -34 -12 -61t-29 -45.5t-34 -36t-29 -43t-12 -56.5q0 -13 -8.5 -22t-20.5 -9q-13 0 -22 9t-9 22z" />
<glyph unicode="&#x2088;" horiz-adv-x="273" d="M136 -57q-55 0 -85 24.5t-30 70.5q0 51 48 73q-38 16 -38 59q0 41 29 62.5t76 21.5t76 -21.5t29 -62.5q0 -43 -38 -59q49 -22 49 -73q0 -46 -30.5 -70.5t-85.5 -24.5zM136 201q-44 0 -44 -33t44 -33q45 0 45 33t-45 33zM136 82q-53 0 -53 -42q0 -41 53 -41q54 0 54 41 q0 42 -54 42z" />
<glyph unicode="&#x2089;" horiz-adv-x="279" d="M129 52q-47 0 -76 26t-29 72q0 51 31.5 77.5t82.5 26.5q60 0 88.5 -40.5t28.5 -109.5q0 -82 -33.5 -121.5t-90.5 -39.5q-51 0 -77 21q-11 9 -11 23q0 11 8 19t19 8q6 0 18 -5q22 -11 42 -11q27 0 46 20.5t19 60.5q-23 -27 -66 -27zM139 199q-54 0 -54 -50q0 -20 14.5 -33 t38.5 -13q17 0 32.5 10t21.5 25q0 61 -53 61z" />
<glyph unicode="&#x20ac;" horiz-adv-x="638" d="M353 -14q-261 0 -304 245h-28q-14 0 -23.5 10t-9.5 25q0 14 9.5 24.5t23.5 10.5h21q-1 11 -1 35v27h-20q-14 0 -23.5 10t-9.5 25q0 14 9.5 24.5t23.5 10.5h27q21 127 99.5 190.5t205.5 63.5q77 0 137 -29t95 -78q9 -14 9 -27q0 -17 -12 -29t-29 -12q-20 0 -34 17 q-64 80 -166 80q-181 0 -217 -176h149q13 0 23 -10.5t10 -24.5q0 -15 -9.5 -25t-23.5 -10h-158v-27q0 -24 1 -35h157q13 0 23 -10.5t10 -24.5q0 -15 -9.5 -25t-23.5 -10h-149q36 -167 217 -167q103 0 172 75q14 15 31 15t29 -12t12 -29q0 -13 -8 -24q-34 -48 -97.5 -75.5 t-138.5 -27.5z" />
<glyph unicode="&#x2116;" horiz-adv-x="1085" d="M890 329q76 0 76 100t-76 100q-77 0 -77 -100t77 -100zM890 93q-23 0 -36 12.5t-13 35.5q0 51 49 51q48 0 48 -51q0 -48 -48 -48zM890 257q-74 0 -114.5 43.5t-40.5 128.5t40.5 128.5t114.5 43.5q73 0 113 -43.5t40 -128.5t-40 -128.5t-113 -43.5zM578 173v466 q0 17 12.5 29.5t29.5 12.5t29.5 -12.5t12.5 -29.5v-605q0 -17 -12.5 -29.5t-29.5 -12.5q-19 0 -36 19l-425 489v-466q0 -17 -12.5 -29.5t-29.5 -12.5t-29.5 12.5t-12.5 29.5v605q0 17 12.5 29.5t29.5 12.5q20 0 35 -18z" />
<glyph unicode="&#x2122;" horiz-adv-x="410" d="M44 652h121q8 0 13.5 -5.5t5.5 -13.5t-5.5 -13.5t-13.5 -5.5h-40v-127q0 -8 -6 -14t-14 -6t-14 6t-6 14v127h-41q-8 0 -13.5 5.5t-5.5 13.5t5.5 13.5t13.5 5.5zM294 506q-10 0 -15 9l-32 58v-88q0 -7 -5.5 -12.5t-12.5 -5.5t-12.5 5.5t-5.5 12.5v152q0 7 5.5 12.5 t12.5 5.5q10 0 16 -9l49 -86l49 86q6 9 16 9q7 0 12.5 -5.5t5.5 -12.5v-152q0 -7 -5.5 -12.5t-12.5 -5.5t-12.5 5.5t-5.5 12.5v88l-32 -58q-5 -9 -15 -9z" />
<glyph unicode="&#x2212;" horiz-adv-x="454" d="M454 218q0 -15 -10.5 -26t-24.5 -11h-384q-14 0 -24.5 11t-10.5 26t10.5 25.5t24.5 10.5h384q14 0 24.5 -10.5t10.5 -25.5z" />
<glyph unicode="&#x221a;" horiz-adv-x="548" d="M501 657l-218 -801q-7 -27 -36 -27q-24 0 -34 22l-165 366q-4 8 -4 17q0 16 11 27.5t26 11.5q25 0 34 -23l125 -285l190 718q8 29 36 29q16 0 27 -11t11 -27q0 -8 -3 -17z" />
<glyph unicode="&#x2260;" horiz-adv-x="454" d="M454 136q0 -15 -10.5 -26t-24.5 -11h-250l-33 -49q-5 -8 -15 -8q-7 0 -12.5 5t-5.5 13q0 6 3 10l20 29h-91q-14 0 -24.5 11t-10.5 26t10.5 25.5t24.5 10.5h139l62 90h-201q-14 0 -24.5 11t-10.5 26t10.5 25.5t24.5 10.5h249l35 51q5 8 14 8q7 0 12.5 -5t5.5 -13 q0 -6 -3 -10l-21 -31h92q14 0 24.5 -10.5t10.5 -25.5t-10.5 -26t-24.5 -11h-140l-62 -90h202q14 0 24.5 -10.5t10.5 -25.5z" />
<glyph unicode="&#x2264;" horiz-adv-x="348" d="M348 36q0 -15 -10.5 -25.5t-24.5 -10.5h-278q-14 0 -24.5 10.5t-10.5 25.5t10.5 26t24.5 11h278q14 0 24.5 -11t10.5 -26zM0 297q0 22 18 32l276 156q8 5 19 5q14 0 24.5 -10.5t10.5 -25.5q0 -22 -18 -32l-234 -125l234 -125q18 -10 18 -31q0 -15 -10.5 -26t-24.5 -11 q-9 0 -19 6l-276 156q-18 11 -18 31z" />
<glyph unicode="&#x2265;" horiz-adv-x="348" d="M0 36q0 15 10.5 26t24.5 11h278q14 0 24.5 -11t10.5 -26t-10.5 -25.5t-24.5 -10.5h-278q-14 0 -24.5 10.5t-10.5 25.5zM348 297q0 -20 -18 -31l-276 -156q-10 -6 -19 -6q-14 0 -24.5 11t-10.5 26q0 21 18 31l234 125l-234 125q-18 10 -18 32q0 15 10.5 25.5t24.5 10.5 q11 0 19 -5l276 -156q18 -10 18 -32z" />
<glyph unicode="&#x25fc;" horiz-adv-x="460" d="M0 460h460v-460h-460v460z" />
<glyph unicode="&#xf6c3;" horiz-adv-x="143" d="M73 -41q47 0 47 -55q0 -101 -69 -163q-7 -5 -12 -5q-6 0 -10.5 4.5t-4.5 11.5q0 6 5 11q30 31 30 69q0 16 -16.5 39t-16.5 40q0 48 47 48z" />
<glyph unicode="&#xfb06;" horiz-adv-x="697" d="M575 505v-51h60q15 0 25.5 -10.5t10.5 -25.5t-10.5 -25.5t-25.5 -10.5h-60v-263q0 -24 15 -37.5t36 -13.5q16 0 27 -11t11 -27t-11 -27t-27 -11q-61 0 -95 36t-34 95v259h-33q-15 0 -25.5 10.5t-10.5 25.5t10.5 25.5t25.5 10.5h33v51q0 52 -26.5 83t-81.5 31 q-42 0 -67.5 -23t-25.5 -57t15 -61t54 -72q8 -10 8 -23q0 -16 -11 -26.5t-26 -10.5q-14 0 -26 11q-48 40 -101 40q-35 0 -57 -15t-22 -41t26 -43t63.5 -28.5t75 -26t63.5 -44.5t26 -74q0 -67 -47 -102.5t-124 -35.5q-58 0 -104.5 22t-69.5 50q-9 13 -9 25q0 16 11 27t27 11 q15 0 26 -10q54 -50 119 -50q93 0 93 60q0 27 -26 44.5t-63.5 29t-75 25.5t-63.5 44t-26 75q0 62 44 95t113 33q45 0 88 -15q-54 54 -54 113q0 53 41.5 87t106.5 34q93 0 138.5 -49t45.5 -133z" />
<glyph horiz-adv-x="602" d="M301 64q88 0 128 64.5t40 208.5q0 142 -40 207t-128 65t-128 -65t-40 -207q0 -144 40 -208.5t128 -64.5zM301 687q129 0 190.5 -85.5t61.5 -264.5q0 -180 -61.5 -265.5t-190.5 -85.5q-130 0 -191 85.5t-61 265.5q0 179 61 264.5t191 85.5z" />
<glyph horiz-adv-x="602" d="M294 564l-144 -103q-10 -7 -23 -7q-17 0 -28.5 12t-11.5 28q0 22 19 35l203 143q13 9 26 9q17 0 29 -12t12 -29v-607q0 -17 -12 -29t-29 -12t-29 12t-12 29v531z" />
<glyph horiz-adv-x="602" d="M96 559q20 57 74 92.5t131 35.5q100 0 160 -55.5t60 -144.5q0 -53 -26.5 -101t-67 -81t-87 -65.5t-87 -56.5t-67 -51t-26.5 -52h332q16 0 28 -12t12 -28t-12 -28t-28 -12h-380q-16 0 -28 12t-12 28q0 61 37.5 110.5t91 84.5t107.5 69.5t91.5 81t37.5 101.5q0 52 -36.5 87 t-99.5 35q-94 0 -132 -84q-12 -25 -37 -25q-16 0 -28 12t-12 28q0 10 4 19z" />
<glyph horiz-adv-x="602" d="M326 412q109 0 157 -60t48 -155q0 -101 -60 -155.5t-176 -54.5q-147 0 -221 113q-7 12 -7 23q0 17 11.5 28.5t28.5 11.5q20 0 36 -21q54 -76 152 -76q75 0 113.5 34t38.5 97q0 138 -139 138h-63q-17 0 -28.5 11.5t-11.5 28.5t13 30l163 188h-236q-17 0 -28.5 11.5 t-11.5 28.5t11.5 28.5t28.5 11.5h321q16 0 28 -11.5t12 -28.5q0 -16 -11 -28z" />
<glyph horiz-adv-x="602" d="M457 229h47q16 0 28 -11.5t12 -28.5t-12 -28.5t-28 -11.5h-47v-115q0 -17 -12.5 -29.5t-29.5 -12.5t-29.5 12.5t-12.5 29.5v115h-276q-17 0 -28.5 11.5t-11.5 28.5q0 13 8 24l314 447q13 20 36 20q17 0 29.5 -12.5t12.5 -29.5v-409zM169 229h204v288z" />
<glyph horiz-adv-x="602" d="M302 454q110 0 173.5 -58t63.5 -175q0 -115 -64 -175t-173 -60q-84 0 -148 39.5t-89 97.5q-5 11 -5 20q0 17 12 28.5t28 11.5q24 0 36 -22q28 -50 67 -72t99 -22q70 0 111.5 38.5t41.5 115.5q0 76 -41.5 114.5t-111.5 38.5q-87 0 -148 -51q-18 -14 -33 -14 q-17 0 -28.5 11.5t-11.5 28.5q0 5 2 15l55 277q2 12 13 22t26 10h299q16 0 28 -11.5t12 -28.5t-12 -28.5t-28 -11.5h-273l-35 -176q55 37 134 37z" />
<glyph horiz-adv-x="602" d="M312 440q104 0 167 -58t63 -167q0 -117 -64.5 -173t-175.5 -56q-124 0 -183.5 90t-59.5 245q0 366 257 366q57 0 101 -17t66 -40q13 -14 13 -30t-12 -28t-28 -12q-13 0 -26 9q-55 40 -114 40q-89 0 -131 -65.5t-42 -179.5q24 31 69 53.5t100 22.5zM302 64q72 0 114 36.5 t42 114.5q0 72 -42 110t-108 38q-104 0 -162 -100q0 -90 41 -144.5t115 -54.5z" />
<glyph horiz-adv-x="602" d="M161 33q0 80 28.5 155.5t69.5 131t82.5 104t70 92t28.5 77.5h-325q-17 0 -28.5 11.5t-11.5 28.5t11.5 28.5t28.5 11.5h369q16 0 28 -11.5t12 -28.5q0 -60 -29 -116t-70 -104t-82.5 -99.5t-70.5 -124.5t-29 -156q0 -17 -12 -29t-29 -12t-29 12t-12 29z" />
<glyph horiz-adv-x="602" d="M301 -14q-113 0 -176.5 53.5t-63.5 155.5q0 124 115 173q-85 43 -85 139q0 88 56 134t154 46q99 0 154.5 -46t55.5 -134q0 -95 -84 -139q115 -50 115 -173q0 -102 -64 -155.5t-177 -53.5zM298 609q-59 0 -91 -26.5t-32 -75.5q0 -50 34 -76.5t92 -26.5q59 0 93 26.5 t34 76.5q0 49 -35 75.5t-95 26.5zM301 326q-74 0 -115 -33.5t-41 -97.5t42.5 -97.5t113.5 -33.5q72 0 114.5 33.5t42.5 97.5t-41.5 97.5t-115.5 33.5z" />
<glyph horiz-adv-x="602" d="M289 233q-104 0 -167 58t-63 167q0 117 64.5 173t175.5 56q124 0 183.5 -90t59.5 -245q0 -366 -257 -366q-57 0 -101 17t-66 40q-13 14 -13 30q0 17 11.5 28.5t28.5 11.5q13 0 26 -9q55 -40 114 -40q89 0 131 65.5t42 179.5q-24 -31 -69 -53.5t-100 -22.5zM299 609 q-72 0 -114 -36.5t-42 -114.5q0 -72 42 -110t108 -38q104 0 162 100q0 90 -41 144.5t-115 54.5z" />
<glyph horiz-adv-x="732" d="M578 687q51 0 86 -33t35 -83q0 -59 -43.5 -92t-110.5 -33q-37 0 -68 6q-21 -32 -56 -47q59 0 98 -31.5t39 -83.5q0 -44 -21 -71.5t-52 -36.5t-68 -15.5t-68 -10.5t-52 -20.5t-21 -45.5q0 -21 13.5 -33.5t35.5 -12.5q18 0 28 10.5t12 22.5t12 22.5t28 10.5q44 0 44 -45 q0 -21 -11.5 -36t-30.5 -22.5t-38 -11t-39 -3.5q-64 0 -114.5 30t-79.5 76.5t-44 97t-15 97.5q0 79 43 137t123 58q64 0 104 -44q-54 -35 -85 -64t-51 -73.5t-20 -102.5q0 -27 2 -40q2 -16 12 -16q9 0 9 17q0 5 -0.5 18.5t-0.5 20.5q0 70 35 117.5t103 89.5q46 28 67 55 q-59 15 -152 81q-12 9 -41 34.5t-52 39.5t-44 14q-18 0 -29 -11.5t-11 -29.5t11.5 -28.5t28.5 -10.5q13 0 33 20q8 6 17 6q11 0 18.5 -7.5t7.5 -18.5q0 -22 -26.5 -37t-53.5 -15q-38 0 -65 27t-27 64q0 38 27 65.5t65 27.5q54 0 122 -58q41 58 113 58q58 0 100 -42t42 -100 q0 -22 -7 -43q22 -4 50 -4q39 0 68.5 17.5t29.5 55.5q0 26 -18.5 45t-46.5 19q-12 0 -24.5 -6t-19.5 -6q-11 0 -18.5 7.5t-7.5 18.5q0 14 11 22q21 16 59 16zM440 510q6 16 6 35q0 34 -23.5 62t-62.5 28q-48 0 -71 -42q72 -57 151 -83z" />
<glyph horiz-adv-x="609" d="M305 60q82 0 127 53.5t45 156.5t-45 156t-127 53t-127.5 -53t-45.5 -156t45.5 -156.5t127.5 -53.5zM305 -13q-118 0 -185.5 74t-67.5 209q0 134 67.5 208t185.5 74q117 0 184.5 -74t67.5 -208q0 -135 -67 -209t-185 -74z" />
<glyph horiz-adv-x="370" d="M198 434l-99 -67q-9 -6 -21 -6q-16 0 -27.5 11.5t-11.5 27.5q0 21 17 33l158 106q12 7 25 7q17 0 28 -11t11 -28v-475q0 -16 -12 -28t-28 -12t-28 12t-12 28v402z" />
<glyph horiz-adv-x="516" d="M64 436q22 54 71.5 85t124.5 31q98 0 152.5 -46.5t54.5 -117.5q0 -50 -35 -91t-85 -68t-100 -50.5t-85 -49t-35 -53.5h311q16 0 27 -11t11 -27t-11 -27t-27 -11h-357q-17 0 -28 11.5t-11 28.5q0 60 35 104t85.5 70t101 49t85.5 54t35 71q0 39 -32.5 64.5t-91.5 25.5 q-49 0 -77 -19t-48 -56q-11 -21 -35 -21q-16 0 -27.5 11.5t-11.5 27.5q0 7 3 15z" />
<glyph horiz-adv-x="541" d="M290 276q206 0 206 -214q0 -101 -60.5 -155.5t-176.5 -54.5q-75 0 -131.5 32t-89.5 83q-6 10 -6 22q0 17 11 28t28 11q21 0 32 -16q58 -84 156 -84q75 0 114.5 36t39.5 98q0 138 -140 138h-61q-16 0 -27 11t-11 27q0 14 10 26l170 198h-247q-16 0 -27 11t-11 27t11 27 t27 11h325q16 0 27 -11t11 -27q0 -15 -10 -26z" />
<glyph horiz-adv-x="541" d="M425 96h48q17 0 28 -11t11 -28t-11 -28t-28 -11h-48v-121q0 -17 -11.5 -28.5t-28.5 -11.5t-28.5 11.5t-11.5 28.5v121h-279q-16 0 -27.5 11t-11.5 28q0 14 10 27l313 442q13 20 35 20q17 0 28.5 -12t11.5 -28v-410zM135 96h210v295z" />
<glyph horiz-adv-x="567" d="M280 319q111 0 174.5 -58t63.5 -175q0 -118 -63.5 -176.5t-174.5 -58.5q-82 0 -143 38.5t-93 99.5q-5 9 -5 20q0 17 11.5 28t27.5 11q23 0 36 -22q31 -50 70 -74t96 -24q70 0 112.5 40.5t42.5 117.5q0 76 -42.5 116t-112.5 40q-87 0 -147 -51q-21 -16 -34 -16 q-17 0 -28 11.5t-11 27.5q0 5 2 15l50 276q3 13 13.5 23t25.5 10h305q16 0 27 -11t11 -27t-11 -27t-27 -11h-277l-33 -178q60 35 134 35z" />
<glyph horiz-adv-x="575" d="M299 437q104 0 166 -57t62 -166q0 -117 -63.5 -172.5t-174.5 -55.5q-124 0 -182.5 88.5t-58.5 243.5q0 189 65 276t190 87q57 0 100.5 -17.5t66.5 -40.5q13 -14 13 -30q0 -17 -11.5 -28t-27.5 -11q-13 0 -24 8q-53 39 -117 39q-171 0 -171 -243q25 33 68.5 56t98.5 23z M289 62q72 0 113.5 36.5t41.5 115.5q0 72 -41.5 109.5t-107.5 37.5q-101 0 -160 -101q0 -90 40 -144t114 -54z" />
<glyph horiz-adv-x="491" d="M108 -102q0 71 20.5 137.5t51.5 114.5t67.5 95t67.5 81.5t51.5 70.5t20.5 65h-327q-16 0 -27 11t-11 27t11 27t27 11h373q16 0 27 -11t11 -27q0 -60 -29 -116t-70.5 -104.5t-82.5 -100.5t-70 -125t-29 -156q0 -17 -12 -29t-29 -12t-29 12t-12 29z" />
<glyph horiz-adv-x="559" d="M280 -14q-113 0 -176.5 52.5t-63.5 154.5q0 123 114 172q-83 43 -83 137q0 88 55 133t154 45t154 -45t55 -133q0 -94 -83 -137q114 -50 114 -172q0 -102 -63.5 -154.5t-176.5 -52.5zM280 607q-61 0 -94.5 -27.5t-33.5 -77.5q0 -51 33.5 -76.5t94.5 -25.5t94.5 25.5 t33.5 76.5q0 50 -33.5 77.5t-94.5 27.5zM280 324q-74 0 -116.5 -33.5t-42.5 -97.5t43.5 -98t115.5 -34t115.5 34t43.5 98t-42.5 97.5t-116.5 33.5z" />
<glyph horiz-adv-x="575" d="M275 101q-104 0 -166 57t-62 166q0 117 63.5 172.5t174.5 55.5q124 0 182.5 -88.5t58.5 -243.5q0 -189 -65 -276t-190 -87q-57 0 -100.5 17.5t-66.5 40.5q-13 14 -13 30q0 17 11.5 28t27.5 11q13 0 24 -8q53 -39 117 -39q171 0 171 243q-25 -33 -68.5 -56t-98.5 -23z M285 476q-72 0 -113.5 -36.5t-41.5 -115.5q0 -72 41.5 -109.5t107.5 -37.5q101 0 160 101q0 90 -40 144t-114 54z" />
<glyph horiz-adv-x="370" d="M320 335q0 -15 -10.5 -25.5t-25.5 -10.5h-198q-15 0 -25.5 10.5t-10.5 25.5t10.5 25.5t25.5 10.5h198q15 0 25.5 -10.5t10.5 -25.5z" />
<glyph horiz-adv-x="303" d="M52 337q0 202 38 300.5t132 137.5q10 4 17 4q15 0 26 -11t11 -26q0 -24 -23 -34q-34 -16 -57 -41.5t-35.5 -54t-19 -76.5t-8 -89t-1.5 -110t1.5 -110t8 -89t19 -76.5t35.5 -54t57 -41.5q23 -10 23 -34q0 -15 -11 -26t-26 -11q-7 0 -17 4q-94 39 -132 137.5t-38 300.5z " />
<glyph horiz-adv-x="303" d="M251 337q0 -202 -38 -300.5t-132 -137.5q-10 -4 -17 -4q-15 0 -26 11t-11 26q0 24 23 34q34 16 57 41.5t35.5 54t19 76.5t8 89t1.5 110t-1.5 110t-8 89t-19 76.5t-35.5 54t-57 41.5q-23 10 -23 34q0 15 11 26t26 11q7 0 17 -4q94 -39 132 -137.5t38 -300.5z" />
<glyph horiz-adv-x="269" d="M244 -69q0 -15 -10.5 -25.5t-25.5 -10.5h-95q-18 0 -29.5 12t-11.5 30v800q0 18 11.5 30t29.5 12h95q15 0 25.5 -10.5t10.5 -25.5t-10.5 -25.5t-25.5 -10.5h-56v-740h56q15 0 25.5 -10.5t10.5 -25.5z" />
<glyph horiz-adv-x="269" d="M25 -69q0 15 10.5 25.5t25.5 10.5h56v740h-56q-15 0 -25.5 10.5t-10.5 25.5t10.5 25.5t25.5 10.5h95q18 0 29.5 -12t11.5 -30v-800q0 -18 -11.5 -30t-29.5 -12h-95q-15 0 -25.5 10.5t-10.5 25.5z" />
<glyph horiz-adv-x="346" d="M123 337q100 -14 100 -128q0 -27 -3.5 -84.5t-3.5 -85.5q0 -26 3 -39t17.5 -23t44.5 -10q15 0 25.5 -10.5t10.5 -25.5t-10.5 -25.5t-25.5 -10.5q-76 0 -112 35.5t-36 90.5q0 46 7.5 110t7.5 96q0 47 -21.5 63t-68.5 16q-14 0 -22.5 9t-8.5 22t8.5 22t22.5 9q47 0 68.5 16 t21.5 63q0 32 -7.5 96t-7.5 110q0 55 36 90.5t112 35.5q15 0 25.5 -10.5t10.5 -25.5t-10.5 -25.5t-25.5 -10.5q-42 0 -53.5 -17t-11.5 -55q0 -28 3.5 -85.5t3.5 -84.5q0 -114 -100 -128z" />
<glyph horiz-adv-x="346" d="M221 337q-100 14 -100 128q0 27 3.5 84.5t3.5 85.5q0 26 -3 39t-17.5 23t-44.5 10q-15 0 -25.5 10.5t-10.5 25.5t10.5 25.5t25.5 10.5q76 0 112 -35.5t36 -90.5q0 -46 -7.5 -110t-7.5 -96q0 -47 21.5 -63t68.5 -16q14 0 22.5 -9t8.5 -22t-8.5 -22t-22.5 -9 q-47 0 -68.5 -16t-21.5 -63q0 -32 7.5 -96t7.5 -110q0 -55 -36 -90.5t-112 -35.5q-15 0 -25.5 10.5t-10.5 25.5t10.5 25.5t25.5 10.5q42 0 53.5 17t11.5 55q0 28 -3.5 85.5t-3.5 84.5q0 114 100 128z" />
<glyph horiz-adv-x="522" d="M65 337q0 12 8 22l159 185q10 12 23 12t22 -9.5t9 -22.5q0 -12 -8 -21l-148 -166l148 -167q8 -9 8 -21q0 -13 -9 -22t-22 -9t-23 12l-159 184q-8 11 -8 23zM236 337q0 12 8 22l160 185q9 12 23 12q12 0 21 -9.5t9 -22.5q0 -12 -8 -21l-148 -166l148 -167q8 -9 8 -21 q0 -13 -9 -22t-21 -9q-14 0 -23 12l-160 184q-8 11 -8 23z" />
<glyph horiz-adv-x="522" d="M457 337q0 -13 -9 -23l-159 -184q-11 -12 -23 -12t-21 9t-9 22q0 12 8 21l148 167l-148 166q-8 9 -8 21q0 13 9 22.5t21 9.5t23 -12l159 -185q9 -9 9 -22zM286 337q0 -10 -9 -23l-159 -184q-10 -12 -23 -12t-21.5 9t-8.5 22q0 12 8 21l148 167l-148 166q-8 9 -8 21 q0 13 8.5 22.5t21.5 9.5t23 -12l159 -185q9 -11 9 -22z" />
<glyph horiz-adv-x="350" d="M64 337q0 13 9 22l159 185q10 12 23 12q12 0 21 -9.5t9 -22.5q0 -12 -8 -21l-148 -166l148 -167q8 -9 8 -21q0 -13 -9 -22t-21 -9q-13 0 -23 12l-159 184q-9 10 -9 23z" />
<glyph horiz-adv-x="350" d="M286 337q0 -10 -9 -23l-159 -184q-10 -12 -23 -12t-21.5 9t-8.5 22q0 12 8 21l148 167l-148 166q-8 9 -8 21q0 13 8.5 22.5t21.5 9.5t23 -12l159 -185q9 -11 9 -22z" />
<glyph horiz-adv-x="577" d="M483 334q0 -15 -10.5 -25.5t-24.5 -10.5h-318q-14 0 -24.5 10.5t-10.5 25.5t10.5 26t24.5 11h318q14 0 24.5 -11t10.5 -26z" />
<glyph horiz-adv-x="902" d="M807 334q0 -15 -10.5 -25.5t-24.5 -10.5h-642q-14 0 -24.5 10.5t-10.5 25.5t10.5 26t24.5 11h642q14 0 24.5 -11t10.5 -26z" />
<glyph horiz-adv-x="190" d="M95 271q-55 0 -55 56q0 57 55 57t55 -57q0 -56 -55 -56z" />
<glyph horiz-adv-x="458" d="M280 501q32 -32 32 -85q0 -35 -20.5 -63t-50 -47t-59 -38.5t-50 -47t-20.5 -62.5q0 -46 32 -71.5t88 -25.5q52 0 83.5 27.5t31.5 78.5q0 17 12 29t29 12t29 -12t12 -29q0 -82 -52.5 -131.5t-144.5 -49.5q-96 0 -149.5 45t-53.5 127q0 47 20.5 84t50 58.5t59 39t50 35.5 t20.5 37q0 20 -12 36q-8 12 -8 25q0 17 12 29t29 12t30 -13zM253 681q55 0 55 -56q0 -57 -55 -57t-55 57q0 56 55 56z" />
<glyph horiz-adv-x="210" d="M105 -8q-47 0 -46 46l17 434q2 28 29 28q28 0 30 -28l16 -434q1 -46 -46 -46zM105 681q55 0 55 -56q0 -57 -55 -57t-55 57q0 56 55 56z" />
<glyph horiz-adv-x="418" d="M209 207q-130 0 -130 130q0 136 130 136t130 -136q0 -130 -130 -130z" />
<glyph horiz-adv-x="481" d="M364 450q-49 59 -124 59q-53 0 -80.5 -21t-27.5 -53q0 -34 32 -56t78 -36.5t92 -33.5t78 -57.5t32 -96.5q0 -70 -45 -114.5t-124 -51.5v-67q0 -15 -10.5 -25.5t-24.5 -10.5t-24 10.5t-10 25.5v66q-57 6 -102 34.5t-71 67.5q-7 10 -7 24q0 17 11.5 28.5t27.5 11.5 q20 0 34 -19q50 -69 137 -69q61 0 93.5 23t32.5 66q0 39 -32 65t-78 41.5t-92 33t-78 52.5t-32 88q0 67 45 103.5t111 45.5v50q0 15 10 26t24 11t24.5 -11t10.5 -26v-51q41 -4 84.5 -27t68.5 -61q7 -11 7 -23q0 -16 -11.5 -27.5t-27.5 -11.5q-18 0 -32 17z" />
<glyph horiz-adv-x="500" d="M30 266q0 125 53.5 191.5t148.5 78.5v65q0 15 10.5 26t24.5 11t24.5 -11t10.5 -26v-63q56 -5 93.5 -28t55.5 -46q9 -14 9 -27q0 -16 -11.5 -28t-27.5 -12q-18 0 -30 13q-45 49 -120 49q-159 0 -159 -193q0 -199 159 -199q75 0 120 45q13 14 30 14q16 0 27.5 -11.5 t11.5 -28.5q0 -14 -9 -27q-8 -11 -23 -23.5t-50 -28t-76 -19.5v-66q0 -15 -10.5 -25.5t-24.5 -10.5t-24.5 10.5t-10.5 25.5v67q-91 9 -146.5 79.5t-55.5 197.5z" />
<glyph horiz-adv-x="513" d="M290 240h-94q0 -1 2.5 -10t4.5 -20.5t2 -23.5q0 -66 -45 -105q26 12 57 12q26 0 69.5 -13t64.5 -13q26 0 40 7.5t27 26.5q10 15 29 15q16 0 27 -11t11 -27q0 -9 -5 -19q-36 -73 -127 -73q-27 0 -80 17.5t-81 17.5q-38 0 -88 -25q-10 -5 -20 -5q-16 0 -27 11t-11 27 q0 20 18 32q28 18 47 48t19 62q0 35 -13 69h-50q-15 0 -26 11t-11 26t11 26t26 11h14q-31 60 -31 104q0 68 52.5 118t147.5 50q73 0 127 -33.5t70 -83.5q4 -12 4 -19q0 -16 -11 -27t-27 -11q-24 0 -35 23q-37 77 -128 77q-54 0 -85.5 -26.5t-31.5 -67.5q0 -48 32 -104h125 q15 0 26 -11t11 -26t-11 -26t-26 -11z" />
<glyph horiz-adv-x="514" d="M255 -8q-17 0 -29 12t-12 29v118h-98q-14 0 -24 10t-10 25t10 25t24 10h98v38h-97q-14 0 -24 10t-10 25q0 14 10 24.5t24 10.5h60l-146 181q-9 12 -9 27q0 18 12 29.5t29 11.5q21 0 35 -19l157 -205l157 205q14 19 35 19q17 0 29 -11.5t12 -29.5q0 -15 -9 -27l-146 -181 h60q14 0 24 -10.5t10 -24.5q0 -15 -10 -25t-24 -10h-97v-38h98q14 0 24 -10t10 -25t-10 -25t-24 -10h-98v-118q0 -17 -12 -29t-29 -12z" />
<glyph horiz-adv-x="439" d="M441 623q0 -14 -10 -24t-24 -10q-7 0 -28 8.5t-45 8.5q-38 0 -58.5 -24t-29.5 -73l-21 -111h83q15 0 25.5 -10.5t10.5 -25.5t-10.5 -25.5t-25.5 -10.5h-94q-42 -218 -61 -327q-17 -95 -67 -147.5t-133 -52.5q-57 0 -83 14q-20 11 -20 33q0 15 11 26t26 11q7 0 28 -4.5 t36 -4.5q49 0 80 32t41 89q9 52 29 162.5t30 168.5h-51q-15 0 -25.5 10.5t-10.5 25.5t10.5 25.5t25.5 10.5h64l20 108q32 174 170 174q70 0 99 -35q8 -10 8 -22z" />
<glyph horiz-adv-x="565" d="M285 306h-146q0 -1 -0.5 -8t-0.5 -13q0 -12 1 -23h146q13 0 22.5 -9.5t9.5 -23.5t-9.5 -24t-22.5 -10h-137q34 -131 175 -131q33 0 61 11.5t39.5 21t28.5 26.5q13 13 29 13q17 0 28 -11t11 -28q0 -14 -9 -26q-33 -40 -83 -62t-105 -22q-108 0 -173 57.5t-86 150.5h-24 q-13 0 -22.5 10t-9.5 24t9.5 23.5t22.5 9.5h15v44h-15q-14 0 -23 9.5t-9 23.5t9.5 24t22.5 10h23q21 100 90 156t170 56q72 0 122.5 -27.5t68.5 -59.5q5 -9 5 -19q0 -17 -11.5 -28t-27.5 -11q-14 0 -25 9q-3 2 -12.5 11t-15 13.5t-17.5 12.5t-23 12t-28 7t-36 3 q-144 0 -176 -135h138q13 0 22.5 -10t9.5 -24t-9 -23.5t-23 -9.5z" />
<glyph horiz-adv-x="568" d="M529 222q0 -95 -70 -161q9 -27 9 -61q0 -72 -38 -126t-117 -54q-54 0 -82 23q-15 12 -15 31q0 16 11 27.5t28 11.5q9 0 27 -6.5t30 -6.5q35 0 56 23t21 63q0 18 -3 29q-52 -29 -122 -29q-96 0 -160.5 52t-64.5 144q0 107 114 181q-47 76 -47 160q0 70 40 117t111 47 q65 0 102.5 -41t37.5 -104q0 -56 -37 -103.5t-106 -96.5q16 -23 81.5 -88.5t90.5 -112.5q27 30 27 80q0 29 -15.5 50t-50.5 47q-18 14 -18 35q0 16 11 27.5t27 11.5q11 0 21 -6q47 -26 74 -71.5t27 -92.5zM264 60q66 0 105 29q-21 43 -90.5 115t-88.5 98q-69 -44 -69 -116 q0 -58 40 -92t103 -34zM184 523q0 -62 31 -124q44 29 73.5 69t29.5 74q0 32 -16 51.5t-47 19.5q-36 0 -53.5 -25.5t-17.5 -64.5z" />
<glyph horiz-adv-x="732" d="M591 681q39 0 66 -27t27 -65q0 -61 -58 -92t-127 -31l-19 1q2 -19 2 -45q0 -108 -68 -198t-146 -123q-6 -3 -6 -11q0 -10 11 -10q3 0 9 2q76 32 134 97t85 151q43 0 72.5 -30t29.5 -85q0 -93 -80.5 -158t-213.5 -65q-112 0 -186.5 55.5t-74.5 155.5q0 71 59 71 q43 0 43 -45q0 -19 -18 -36.5t-18 -30.5q0 -18 15 -32.5t34 -14.5q21 0 36.5 16t15.5 38q0 18 -18 73.5t-18 89.5q0 50 32 80t79 30q85 0 129 -78q8 22 8 68l-2 41q-68 13 -136.5 56t-92.5 102q-31 -2 -51.5 -20t-20.5 -45q0 -23 14.5 -35.5t38.5 -12.5q12 0 20 -8t8 -20 q0 -11 -8 -19.5t-20 -8.5q-44 0 -76.5 28t-32.5 76q0 57 45 89t108 32q77 0 148 -46.5t101 -120.5q14 -2 29 -2q57 0 93 21.5t36 49.5q0 15 -10.5 25.5t-26.5 10.5q-15 0 -25.5 -10.5t-10.5 -25.5q0 -11 -8 -19t-19 -8t-19 8t-8 19q0 38 25.5 65t64.5 27zM252 634 q29 -42 63.5 -63.5t89.5 -39.5q-23 38 -64 67.5t-89 35.5z" />
<glyph horiz-adv-x="413" d="M35 -29l265 762q10 28 39 28q17 0 28.5 -12t11.5 -29q0 -9 -4 -18l-264 -762q-10 -28 -39 -28q-17 0 -28.5 12t-11.5 29q0 7 3 18z" />
<glyph horiz-adv-x="413" d="M111 733l265 -762q3 -11 3 -18q0 -17 -11.5 -29t-28.5 -12q-29 0 -39 28l-264 762q-4 9 -4 18q0 17 11.5 29t28.5 12q29 0 39 -28z" />
<glyph horiz-adv-x="219" d="M149 781v-888q0 -17 -11.5 -28.5t-28.5 -11.5t-28.5 11.5t-11.5 28.5v888q0 17 11.5 28.5t28.5 11.5t28.5 -11.5t11.5 -28.5z" />
<glyph horiz-adv-x="298" d="M149 432q65 0 65 99q0 100 -65 100q-64 0 -64 -100q0 -99 64 -99zM149 376q-127 0 -127 155q0 156 127 156t127 -156q0 -155 -127 -155z" />
<glyph horiz-adv-x="209" d="M133 379q-13 0 -22 9t-9 22v189l-30 -21q-8 -5 -18 -5q-11 0 -20 9t-9 21q0 17 14 25l77 50q8 6 18 6q12 0 21 -8.5t9 -21.5v-244q0 -13 -9.5 -22t-21.5 -9z" />
<glyph horiz-adv-x="276" d="M39 639q12 21 38 34.5t59 13.5q51 0 81.5 -25t30.5 -67q0 -33 -24.5 -58.5t-54 -38.5t-54 -29t-24.5 -31h130q11 0 19 -8.5t8 -19.5q0 -12 -8 -20t-19 -8h-167q-12 0 -20.5 8.5t-8.5 21.5q0 33 16.5 58.5t40 40t47.5 26.5t40.5 26t16.5 32q0 16 -13 26t-37 10 q-31 0 -55 -28q-9 -9 -20 -9t-19 8t-8 20q0 8 5 17z" />
<glyph horiz-adv-x="266" d="M157 570q42 0 63.5 -29t21.5 -64q0 -47 -29.5 -74t-88.5 -27q-37 0 -63.5 16t-39.5 36q-5 9 -5 18q0 11 7.5 19t18.5 8q13 0 22 -11q23 -31 60 -31q57 0 57 46q0 43 -51 43h-22q-11 0 -18.5 8t-7.5 19q0 10 8 21l54 56h-89q-12 0 -20 8t-8 20t8 20.5t20 8.5h143 q11 0 19.5 -8.5t8.5 -20.5t-9 -21z" />
<glyph horiz-adv-x="268" d="M210 498h15q10 0 19 -8.5t9 -19.5t-8.5 -19.5t-19.5 -8.5h-15v-32q0 -12 -9 -21.5t-22 -9.5q-12 0 -21 9t-9 22v32h-106q-9 0 -18 9t-9 20q0 10 6 18l132 181q11 13 24 13q12 0 22 -9t10 -22v-154zM90 498h59v82z" />
<glyph horiz-adv-x="266" d="M132 582q48 0 80 -24t32 -77q0 -51 -31.5 -78t-83.5 -27q-33 0 -60.5 14.5t-41.5 33.5q-9 12 -9 22q0 11 8 18.5t19 7.5t20 -9q29 -31 64 -31q27 0 41.5 13.5t14.5 35.5t-14.5 35.5t-41.5 13.5q-21 0 -43.5 -9t-30.5 -9q-11 0 -19 7.5t-8 19.5q0 8 2 16l18 100 q2 10 9.5 17.5t18.5 7.5h129q12 0 20.5 -8.5t8.5 -20.5q0 -11 -8.5 -19.5t-20.5 -8.5h-110l-9 -48q16 7 46 7z" />
<glyph horiz-adv-x="279" d="M150 578q46 0 75.5 -26.5t29.5 -71.5q0 -51 -31.5 -77.5t-82.5 -26.5q-117 0 -117 149q0 83 33.5 122.5t90.5 39.5q50 0 77 -22q10 -9 10 -22q0 -12 -7.5 -20t-18.5 -8q-7 0 -18 6q-22 11 -42 11q-27 0 -46 -20.5t-19 -60.5q23 27 66 27zM140 431q54 0 54 50 q0 20 -14.5 32.5t-38.5 12.5q-17 0 -32.5 -9.5t-22.5 -25.5q0 -60 54 -60z" />
<glyph horiz-adv-x="246" d="M53 410q0 41 17.5 76t38 54.5t38 42t17.5 41.5h-121q-12 0 -20 8t-8 20t8 20.5t20 8.5h158q11 0 19.5 -8.5t8.5 -20.5q0 -34 -12 -61t-29 -45.5t-34 -36t-29 -43t-12 -56.5q0 -13 -8.5 -22t-20.5 -9q-13 0 -22 9t-9 22z" />
<glyph horiz-adv-x="273" d="M136 376q-55 0 -85 24.5t-30 70.5q0 51 48 73q-38 16 -38 59q0 41 29 62.5t76 21.5t76 -21.5t29 -62.5q0 -43 -38 -59q49 -22 49 -73q0 -46 -30.5 -70.5t-85.5 -24.5zM136 634q-44 0 -44 -33t44 -33q45 0 45 33t-45 33zM136 515q-53 0 -53 -42q0 -41 53 -41q54 0 54 41 q0 42 -54 42z" />
<glyph horiz-adv-x="279" d="M129 485q-46 0 -75 26t-29 72q0 51 31.5 77.5t81.5 26.5q117 0 117 -150q0 -82 -33.5 -121.5t-90.5 -39.5q-51 0 -77 21q-10 10 -10 23q0 11 7.5 19t19.5 8q5 0 17 -5q22 -11 43 -11q27 0 45.5 20.5t18.5 60.5q-21 -27 -66 -27zM139 632q-54 0 -54 -50q0 -20 14.5 -33 t38.5 -13q17 0 32.5 10t21.5 25q0 61 -53 61z" />
<glyph horiz-adv-x="298" d="M149 43q65 0 65 99q0 100 -65 100q-64 0 -64 -100q0 -99 64 -99zM149 -13q-127 0 -127 155q0 156 127 156t127 -156q0 -155 -127 -155z" />
<glyph horiz-adv-x="209" d="M133 -8q-13 0 -22 9t-9 22v189l-30 -21q-8 -5 -18 -5q-11 0 -20 9t-9 21q0 17 14 25l77 50q8 6 18 6q12 0 21 -8.5t9 -21.5v-244q0 -13 -9.5 -22t-21.5 -9z" />
<glyph horiz-adv-x="276" d="M39 257q12 21 38 34.5t59 13.5q51 0 81.5 -25t30.5 -67q0 -33 -24.5 -58.5t-54 -38.5t-54 -29t-24.5 -31h130q11 0 19 -8.5t8 -19.5q0 -12 -8 -20t-19 -8h-167q-12 0 -20.5 8.5t-8.5 21.5q0 33 16.5 58.5t40 40t47.5 26.5t40.5 26t16.5 32q0 16 -13 26t-37 10 q-31 0 -55 -28q-9 -9 -20 -9t-19 8t-8 20q0 8 5 17z" />
<glyph horiz-adv-x="266" d="M157 181q42 0 63.5 -29t21.5 -64q0 -47 -29.5 -74t-88.5 -27q-37 0 -63.5 16t-39.5 36q-5 9 -5 18q0 11 7.5 19t18.5 8q13 0 22 -11q23 -31 60 -31q57 0 57 46q0 43 -51 43h-22q-11 0 -18.5 8t-7.5 19q0 10 8 21l54 56h-89q-12 0 -20 8t-8 20t8 20.5t20 8.5h143 q11 0 19.5 -8.5t8.5 -20.5t-9 -21z" />
<glyph horiz-adv-x="268" d="M210 111h15q10 0 19 -8.5t9 -19.5t-8.5 -19.5t-19.5 -8.5h-15v-32q0 -12 -9 -21.5t-22 -9.5q-12 0 -21 9t-9 22v32h-106q-9 0 -18 9t-9 20q0 10 6 18l132 181q10 14 25 14q10 0 20.5 -10t10.5 -22v-154zM90 111h59v82z" />
<glyph horiz-adv-x="266" d="M132 192q48 0 80 -24t32 -77q0 -51 -31.5 -78t-83.5 -27q-33 0 -60.5 14.5t-41.5 33.5q-9 12 -9 22q0 11 8 18.5t19 7.5t20 -9q29 -31 64 -31q27 0 41.5 13.5t14.5 35.5t-14.5 35.5t-41.5 13.5q-21 0 -43.5 -9t-30.5 -9q-11 0 -19 7.5t-8 19.5q0 8 2 16l18 100 q2 10 9.5 17.5t18.5 7.5h129q12 0 20.5 -8.5t8.5 -20.5q0 -11 -8.5 -19.5t-20.5 -8.5h-110l-9 -48q16 7 46 7z" />
<glyph horiz-adv-x="279" d="M150 188q46 0 75.5 -26.5t29.5 -71.5q0 -51 -31.5 -77.5t-82.5 -26.5q-117 0 -117 149q0 83 33.5 122.5t90.5 39.5q50 0 77 -22q10 -9 10 -22q0 -12 -7.5 -20t-18.5 -8q-7 0 -18 6q-22 11 -42 11q-27 0 -46 -20.5t-19 -60.5q23 27 66 27zM140 41q54 0 54 50 q0 20 -14.5 32.5t-38.5 12.5q-17 0 -32.5 -9.5t-22.5 -25.5q0 -60 54 -60z" />
<glyph horiz-adv-x="238" d="M53 21q0 41 17.5 76t38 54.5t38 42t17.5 41.5h-121q-12 0 -20 8t-8 20t8 20.5t20 8.5h158q11 0 19.5 -8.5t8.5 -20.5q0 -34 -12 -61t-29 -45.5t-34 -36t-29 -43t-12 -56.5q0 -13 -8.5 -22t-20.5 -9q-13 0 -22 9t-9 22z" />
<glyph horiz-adv-x="273" d="M136 -14q-55 0 -85 24.5t-30 70.5q0 51 48 73q-38 16 -38 59q0 41 29 62.5t76 21.5t76 -21.5t29 -62.5q0 -43 -38 -59q49 -22 49 -73q0 -46 -30.5 -70.5t-85.5 -24.5zM136 244q-44 0 -44 -33t44 -33q45 0 45 33t-45 33zM136 125q-53 0 -53 -42q0 -41 53 -41q54 0 54 41 q0 42 -54 42z" />
<glyph horiz-adv-x="279" d="M129 95q-47 0 -76 26t-29 72q0 51 31.5 77.5t82.5 26.5q60 0 88.5 -40.5t28.5 -109.5q0 -82 -33.5 -121.5t-90.5 -39.5q-51 0 -77 21q-11 9 -11 23q0 11 8 19t19 8q6 0 18 -5q22 -11 42 -11q27 0 46 20.5t19 60.5q-23 -27 -66 -27zM139 242q-54 0 -54 -50q0 -20 14.5 -33 t38.5 -13q17 0 32.5 10t21.5 25q0 61 -53 61z" />
<glyph horiz-adv-x="500" d="M447 423v-392q0 -17 -11.5 -28t-27.5 -11t-27.5 11t-11.5 28v17q-48 -61 -135 -61q-93 0 -147.5 60.5t-54.5 179.5t54.5 180t147.5 61q87 0 135 -62v17q0 17 11.5 28t27.5 11t27.5 -11t11.5 -28zM243 62q63 0 96 42t33 123q0 166 -129 166q-128 0 -128 -166 q0 -165 128 -165z" />
<glyph horiz-adv-x="500" d="M447 423v-392q0 -17 -11.5 -28t-27.5 -11t-27.5 11t-11.5 28v17q-48 -61 -135 -61q-93 0 -147.5 60.5t-54.5 179.5t54.5 180t147.5 61q87 0 135 -62v17q0 17 11.5 28t27.5 11t27.5 -11t11.5 -28zM243 62q63 0 96 42t33 123q0 166 -129 166q-128 0 -128 -166 q0 -165 128 -165zM199 517q-21 18 -4 37l87 108q9 11 21.5 11t25.5 -12q27 -27 4 -49l-98 -94q-18 -18 -36 -1z" />
<glyph horiz-adv-x="500" d="M447 423v-392q0 -17 -11.5 -28t-27.5 -11t-27.5 11t-11.5 28v17q-48 -61 -135 -61q-93 0 -147.5 60.5t-54.5 179.5t54.5 180t147.5 61q87 0 135 -62v17q0 17 11.5 28t27.5 11t27.5 -11t11.5 -28zM243 62q63 0 96 42t33 123q0 166 -129 166q-128 0 -128 -166 q0 -165 128 -165zM252 526q-55 0 -89.5 25.5t-34.5 78.5q0 12 8.5 21t20.5 9t20.5 -9t8.5 -21q0 -47 66 -47q65 0 65 47q0 12 8.5 21t20.5 9t20.5 -9t8.5 -21q0 -53 -34.5 -78.5t-88.5 -25.5z" />
<glyph horiz-adv-x="500" d="M447 423v-392q0 -17 -11.5 -28t-27.5 -11t-27.5 11t-11.5 28v17q-48 -61 -135 -61q-93 0 -147.5 60.5t-54.5 179.5t54.5 180t147.5 61q87 0 135 -62v17q0 17 11.5 28t27.5 11t27.5 -11t11.5 -28zM243 62q63 0 96 42t33 123q0 166 -129 166q-128 0 -128 -166 q0 -165 128 -165zM325 526l-76 58l-76 -58q-9 -7 -20 -7q-13 0 -22 9t-9 22q0 16 14 26l94 70q9 7 19 7t19 -7l94 -70q14 -10 14 -26q0 -13 -9 -22t-22 -9q-11 0 -20 7z" />
<glyph horiz-adv-x="500" d="M447 423v-392q0 -17 -11.5 -28t-27.5 -11t-27.5 11t-11.5 28v17q-48 -61 -135 -61q-93 0 -147.5 60.5t-54.5 179.5t54.5 180t147.5 61q87 0 135 -62v17q0 17 11.5 28t27.5 11t27.5 -11t11.5 -28zM243 62q63 0 96 42t33 123q0 166 -129 166q-128 0 -128 -166 q0 -165 128 -165zM162 527q-42 0 -42 44q0 46 42 46q43 0 43 -46q0 -44 -43 -44zM330 527q-43 0 -43 44q0 46 43 46q42 0 42 -46q0 -44 -42 -44z" />
<glyph horiz-adv-x="500" d="M447 423v-392q0 -17 -11.5 -28t-27.5 -11t-27.5 11t-11.5 28v17q-48 -61 -135 -61q-93 0 -147.5 60.5t-54.5 179.5t54.5 180t147.5 61q87 0 135 -62v17q0 17 11.5 28t27.5 11t27.5 -11t11.5 -28zM243 62q63 0 96 42t33 123q0 166 -129 166q-128 0 -128 -166 q0 -165 128 -165zM305 517q-18 -17 -36 1l-98 94q-23 22 4 49q13 12 25.5 12t21.5 -11l87 -108q17 -19 -4 -37z" />
<glyph horiz-adv-x="500" d="M447 423v-392q0 -17 -11.5 -28t-27.5 -11t-27.5 11t-11.5 28v17q-48 -61 -135 -61q-93 0 -147.5 60.5t-54.5 179.5t54.5 180t147.5 61q87 0 135 -62v17q0 17 11.5 28t27.5 11t27.5 -11t11.5 -28zM243 62q63 0 96 42t33 123q0 166 -129 166q-128 0 -128 -166 q0 -165 128 -165zM368 562q0 -13 -9 -22.5t-22 -9.5h-180q-13 0 -22 9.5t-9 22.5t9 22t22 9h180q13 0 22 -9t9 -22z" />
<glyph horiz-adv-x="500" d="M447 423v-392q0 -20 -21 -34q-52 -35 -52 -79q0 -49 58 -49q11 0 29 4.5t24 4.5q11 0 18 -7.5t7 -18.5q0 -21 -27 -29t-56 -8q-49 0 -79 21.5t-30 64.5q0 32 18 58t49 41q-16 10 -16 31v17q-48 -61 -135 -61q-93 0 -147.5 60.5t-54.5 179.5t54.5 180t147.5 61 q87 0 135 -62v17q0 17 11.5 28t27.5 11t27.5 -11t11.5 -28zM243 62q63 0 96 42t33 123q0 166 -129 166q-128 0 -128 -166q0 -165 128 -165z" />
<glyph horiz-adv-x="500" d="M447 423v-392q0 -17 -11.5 -28t-27.5 -11t-27.5 11t-11.5 28v17q-48 -61 -135 -61q-93 0 -147.5 60.5t-54.5 179.5t54.5 180t147.5 61q87 0 135 -62v17q0 17 11.5 28t27.5 11t27.5 -11t11.5 -28zM243 62q63 0 96 42t33 123q0 166 -129 166q-128 0 -128 -166 q0 -165 128 -165zM250 545q56 0 56 55q0 54 -56 54t-56 -54q0 -55 56 -55zM250 698q52 0 78 -25.5t26 -72.5t-26.5 -73t-77.5 -26t-77.5 26t-26.5 73t26 72.5t78 25.5z" />
<glyph horiz-adv-x="500" d="M447 423v-392q0 -17 -11.5 -28t-27.5 -11t-27.5 11t-11.5 28v17q-48 -61 -135 -61q-93 0 -147.5 60.5t-54.5 179.5t54.5 180t147.5 61q87 0 135 -62v17q0 17 11.5 28t27.5 11t27.5 -11t11.5 -28zM243 62q63 0 96 42t33 123q0 166 -129 166q-128 0 -128 -166 q0 -165 128 -165zM250 542q56 0 56 55q0 54 -56 54t-56 -54q0 -55 56 -55zM250 695q52 0 78 -25.5t26 -72.5t-26.5 -73t-77.5 -26t-77.5 26t-26.5 73t26 72.5t78 25.5zM196 722q-21 18 -4 37l87 108q9 11 21.5 11t25.5 -12q26 -26 4 -49l-98 -94q-18 -18 -36 -1z" />
<glyph horiz-adv-x="500" d="M447 423v-392q0 -17 -11.5 -28t-27.5 -11t-27.5 11t-11.5 28v17q-48 -61 -135 -61q-93 0 -147.5 60.5t-54.5 179.5t54.5 180t147.5 61q87 0 135 -62v17q0 17 11.5 28t27.5 11t27.5 -11t11.5 -28zM243 62q63 0 96 42t33 123q0 166 -129 166q-128 0 -128 -166 q0 -165 128 -165zM312 588q20 0 38 22q10 14 25 14q13 0 22 -9t9 -22q0 -8 -3 -14q-24 -52 -87 -52q-28 0 -66.5 18t-55.5 18q-22 0 -38 -22q-10 -14 -26 -14q-12 0 -21 9.5t-9 22.5q0 8 3 14q25 52 87 52q28 0 66 -18.5t56 -18.5z" />
<glyph horiz-adv-x="729" d="M607 505v-51h60q15 0 25.5 -10.5t10.5 -25.5t-10.5 -25.5t-25.5 -10.5h-60v-263q0 -24 15 -37.5t36 -13.5q16 0 27 -11t11 -27t-11 -27t-27 -11q-61 0 -95 36t-34 95v259h-33q-15 0 -25.5 10.5t-10.5 25.5t10.5 25.5t25.5 10.5h33v51q0 52 -26.5 83t-81.5 31 q-42 0 -67.5 -23t-25.5 -57q0 -32 15 -58t60 -82q9 -10 9 -26t-11.5 -27t-26.5 -11q-16 0 -29 13q-48 48 -101 48q-130 0 -130 -169q0 -168 130 -168q10 0 20 1.5t17.5 3t16.5 5t13.5 6t12.5 7.5t11 7t10.5 7.5t8.5 6.5q11 8 23 8q15 0 26.5 -11t11.5 -27q0 -17 -15 -31 q-67 -55 -156 -55q-100 0 -155 60t-55 180q0 121 54.5 181t155.5 60q47 0 88 -17q-57 55 -57 115q0 53 41.5 87t106.5 34q93 0 138.5 -49t45.5 -133z" />
<glyph horiz-adv-x="803" d="M396 466q-48 0 -85 -35q-9 -8 -21 -8q-13 0 -21.5 8.5t-8.5 21.5q0 12 7 20q46 55 129 55q71 0 109 -35t38 -95v-122q0 -58 55 -58q48 0 72.5 33t24.5 109q0 137 -78.5 206t-215.5 69q-294 0 -294 -296q0 -155 77 -228t217 -73q134 0 219 51q8 5 17 5q13 0 22.5 -9.5 t9.5 -23.5q0 -19 -16 -29q-99 -58 -252 -58q-172 0 -266.5 93t-94.5 272t94.5 269.5t266.5 90.5q163 0 262 -87.5t99 -251.5q0 -36 -7.5 -68.5t-24.5 -64.5t-52 -51t-83 -19q-77 0 -104 58q-41 -58 -120 -58q-57 0 -94 30.5t-37 82.5q0 51 35.5 80t93.5 29h110v19 q0 32 -22.5 50t-60.5 18zM383 214q39 0 67.5 22.5t28.5 61.5v27h-105q-69 0 -69 -55q0 -56 78 -56z" />
<glyph d="M238 -13q-98 0 -151 60t-53 180q0 121 54 181t155 60q90 0 144 -51.5t54 -147.5v-266q0 -101 -54 -152.5t-151 -51.5q-52 0 -98 19t-72 48q-8 10 -8 23q0 15 11 26t26 11q11 0 24 -9q57 -45 117 -45q59 0 92.5 31t33.5 87v47q-44 -50 -124 -50zM363 128v141 q0 60 -33 93.5t-87 33.5q-129 0 -129 -169q0 -168 129 -168q23 0 44 7t34.5 17t23 20.5t13.5 17.5z" />
<glyph d="M238 -13q-98 0 -151 60t-53 180q0 121 54 181t155 60q90 0 144 -51.5t54 -147.5v-266q0 -101 -54 -152.5t-151 -51.5q-52 0 -98 19t-72 48q-8 10 -8 23q0 15 11 26t26 11q11 0 24 -9q57 -45 117 -45q59 0 92.5 31t33.5 87v47q-44 -50 -124 -50zM363 128v141 q0 60 -33 93.5t-87 33.5q-129 0 -129 -169q0 -168 129 -168q23 0 44 7t34.5 17t23 20.5t13.5 17.5zM321 526l-76 58l-76 -58q-9 -7 -20 -7q-13 0 -22 9t-9 22q0 16 14 26l94 70q9 7 19 7t19 -7l94 -70q14 -10 14 -26q0 -13 -9 -22t-22 -9q-11 0 -20 7z" />
<glyph d="M238 -13q-98 0 -151 60t-53 180q0 121 54 181t155 60q90 0 144 -51.5t54 -147.5v-266q0 -101 -54 -152.5t-151 -51.5q-52 0 -98 19t-72 48q-8 10 -8 23q0 15 11 26t26 11q11 0 24 -9q57 -45 117 -45q59 0 92.5 31t33.5 87v47q-44 -50 -124 -50zM363 128v141 q0 60 -33 93.5t-87 33.5q-129 0 -129 -169q0 -168 129 -168q23 0 44 7t34.5 17t23 20.5t13.5 17.5zM245 526q-55 0 -89.5 25.5t-34.5 78.5q0 12 8.5 21t20.5 9t20.5 -9t8.5 -21q0 -47 66 -47q65 0 65 47q0 12 8.5 21t20.5 9t20.5 -9t8.5 -21q0 -53 -34.5 -78.5t-88.5 -25.5z " />
<glyph d="M238 -13q-98 0 -151 60t-53 180q0 121 54 181t155 60q90 0 144 -51.5t54 -147.5v-266q0 -101 -54 -152.5t-151 -51.5q-52 0 -98 19t-72 48q-8 10 -8 23q0 15 11 26t26 11q11 0 24 -9q57 -45 117 -45q59 0 92.5 31t33.5 87v47q-44 -50 -124 -50zM363 128v141 q0 60 -33 93.5t-87 33.5q-129 0 -129 -169q0 -168 129 -168q23 0 44 7t34.5 17t23 20.5t13.5 17.5zM243 540q-45 0 -45 45q0 47 45 47q44 0 44 -47q0 -45 -44 -45z" />
<glyph d="M238 -13q-98 0 -151 60t-53 180q0 121 54 181t155 60q90 0 144 -51.5t54 -147.5v-266q0 -101 -54 -152.5t-151 -51.5q-52 0 -98 19t-72 48q-8 10 -8 23q0 15 11 26t26 11q11 0 24 -9q57 -45 117 -45q59 0 92.5 31t33.5 87v47q-44 -50 -124 -50zM363 128v141 q0 60 -33 93.5t-87 33.5q-129 0 -129 -169q0 -168 129 -168q23 0 44 7t34.5 17t23 20.5t13.5 17.5zM237 506q-47 0 -47 55q0 101 69 163q7 5 12 5q6 0 10.5 -4.5t4.5 -11.5q0 -6 -5 -11q-30 -32 -30 -69q0 -16 16.5 -39t16.5 -40q0 -48 -47 -48z" />
</font>
</defs>
</svg>
